哇哈体育

 找回密码
 注册

QQ登录

只需一步,快速开始

搜索
12
返回列表 发新帖
楼主: 123truth8

[搏击对抗] 1000哇币求帮忙下载磁力WWE 2015年皇家大战 PPV 720P

[复制链接]

20

主题

3553

帖子

4817

积分

Lv.40

Rank: 40Rank: 40Rank: 40Rank: 40

积分
4817
哇币
14828
部落号角
6

乐于助人宣传达人查水使者

 楼主| 发表于 2020-4-20 10:56 | 显示全部楼层

不用了 找到了4.92G的19977版本 HEEL版本不需要了 如果有1080P需要
积极参与短视频推广,可联系管理员免费兑换会员使用阅读权限~
回复

使用道具 举报

7

主题

170

帖子

346

积分

Lv.11

Rank: 11Rank: 11Rank: 11

积分
346
哇币
2135
部落号角
100
发表于 2020-5-3 18:43 | 显示全部楼层
我也尝试用BT彗星下载了一下,一直没速度。
积极参与短视频推广,可联系管理员免费兑换会员使用阅读权限~
回复

使用道具 举报

1

主题

65

帖子

168

积分

Lv.6

Rank: 6Rank: 6

积分
168
哇币
2016
部落号角
0
发表于 2020-6-20 14:41 | 显示全部楼层
Complete name                  : F:\112\WWE.Royal.Rumble.2015.720p.WEBRip.h264-KYR.mkv
Format                         : Matroska
Format version                 : Version 4
File size                      : 5.13 GiB
Duration                       : 2 h 43 min
Overall bit rate               : 4 491 kb/s
Encoded date                   : UTC 2015-01-26 08:53:43
Writing application            : mkvmerge v7.3.0 ('Nouages') 64bit built on Oct 22 2014 18:53:34
Writing library                : libebml v1.3.0 + libmatroska v1.4.1

Video
ID                             : 1
Format                         : AVC
Format/Info                    : Advanced Video Codec
Format profile                 : High@L4
Format settings                : CABAC / 4 Ref Frames
Format settings, CABAC         : Yes
Format settings, Reference fra : 4 frames
Codec ID                       : V_MPEG4/ISO/AVC
Duration                       : 2 h 43 min
Bit rate mode                  : Constant
Bit rate                       : 4 372 kb/s
Width                          : 1 280 pixels
Height                         : 720 pixels
Display aspect ratio           : 16:9
Frame rate mode                : Constant
Frame rate                     : 29.970 (30000/1001) FPS
Color space                    : YUV
Chroma subsampling             : 4:2:0
Bit depth                      : 8 bits
Scan type                      : Progressive
Bits/(Pixel*Frame)             : 0.158
Stream size                    : 4.98 GiB (97%)
Default                        : Yes
Forced                         : No

Audio
ID                             : 2
Format                         : AAC LC
Format/Info                    : Advanced Audio Codec Low Complexity
Codec ID                       : A_AAC-2
Duration                       : 2 h 43 min
Bit rate                       : 125 kb/s
Channel(s)                     : 2 channels
Channel layout                 : L R
Sampling rate                  : 48.0 kHz
Frame rate                     : 46.875 FPS (1024 SPF)
Compression mode               : Lossy
Delay relative to video        : 6 ms
Stream size                    : 147 MiB (3%)
Default                        : Yes
Forced                         : No

这是视频信息,5.13G,英文版本, 你看是否是你所需要的?
积极参与短视频推广,可联系管理员免费兑换会员使用阅读权限~
回复

使用道具 举报

20

主题

3553

帖子

4817

积分

Lv.40

Rank: 40Rank: 40Rank: 40Rank: 40

积分
4817
哇币
14828
部落号角
6

乐于助人宣传达人查水使者

 楼主| 发表于 2020-6-20 16:46 | 显示全部楼层
坏小孩 发表于 2020-6-20 14:41
Complete name                  : F:\112\WWE.Royal.Rumble.2015.720p.WEBRip.h264-KYR.mkv
Format       ...

你好 不需要了 如果有全场的1080P需要
积极参与短视频推广,可联系管理员免费兑换会员使用阅读权限~
回复

使用道具 举报

1

主题

470

帖子

558

积分

Lv.14

Rank: 14Rank: 14Rank: 14Rank: 14Rank: 14Rank: 14

积分
558
哇币
114
部落号角
0
发表于 2020-9-15 08:27 | 显示全部楼层
我有720P最好的KYR版本要吗?
积极参与短视频推广,可联系管理员免费兑换会员使用阅读权限~
回复

使用道具 举报

头像被屏蔽

0

主题

28

帖子

30

积分

禁止发言

积分
30
哇币
-12
部落号角
0
发表于 2021-5-4 16:52 | 显示全部楼层
提示: 作者被禁止或删除 内容自动屏蔽
积极参与短视频推广,可联系管理员免费兑换会员使用阅读权限~
回复

使用道具 举报

*滑动验证:
您需要登录后才可以回帖 登录 | 注册

本版积分规则

Archiver|手机版|小黑屋|广告合作|哇哈体育

GMT+8, 2021-6-19 11:18

Powered by Discuz! X3.4

© 2001-2017 Comsenz Inc.

快速回复 返回顶部 返回列表