哇哈体育

 找回密码
 注册

QQ登录

只需一步,快速开始

搜索
查看: 217|回复: 1

[篮球] 2008年NBA西部决赛湖人vs马刺全5场比赛 [720P BT]

[复制链接]

3

主题

79

帖子

151

积分

Lv.6

Rank: 6Rank: 6

积分
151
哇币
242
部落号角
0
QQ
发表于 2019-8-10 15:22 | 显示全部楼层 |阅读模式
General
Complete name                  : K:\2008科比马刺西决\WCF 2008 - Los Angeles Lakers vs. San Antonio Spurs\Game 2\Game 2.mp4
Format                         : MPEG-4
Format profile                 : Base Media
Codec ID                       : isom (isom)
File size                      : 1.99 GiB
Duration                       : 1 h 40 min
Overall bit rate mode          : Variable
Overall bit rate               : 2 853 kb/s
Encoded date                   : UTC 2008-06-03 19:28:51
Tagged date                    : UTC 2008-06-03 19:28:51

Video
ID                             : 1
Format                         : AVC
Format/Info                    : Advanced Video Codec
Format profile                 : High@L5.1
Format settings                : CABAC / 3 Ref Frames
Format settings, CABAC         : Yes
Format settings, Reference fra : 3 frames
Codec ID                       : avc1
Codec ID/Info                  : Advanced Video Coding
Duration                       : 1 h 40 min
Bit rate                       : 2 740 kb/s
Maximum bit rate               : 6 342 kb/s
Width                          : 1 280 pixels
Height                         : 720 pixels
Display aspect ratio           : 16:9
Frame rate mode                : Constant
Frame rate                     : 29.970 (30000/1001) FPS
Color space                    : YUV
Chroma subsampling             : 4:2:0
Bit depth                      : 8 bits
Scan type                      : Progressive
Bits/(Pixel*Frame)             : 0.099
Stream size                    : 1.92 GiB (96%)
Writing library                : x264 core 59 r839bm_VAQ2mod 27c3071
Encoding settings              : cabac=1 / ref=1 / deblock=1:0:0 / analyse=0x3:0x133 / me=umh / subme=6 / brdo=1 / mixed_ref=0 / me_range=32 / chroma_me=1 / trellis=1 / 8x8dct=1 / cqm=0 / deadzone=21,11 / chroma_qp_offset=0 / threads=1 / nr=0 / decimate=1 / mbaff=0 / fgo=0 / bframes=2 / b_pyramid=1 / b_adapt=0 / b_bias=0 / direct=3 / wpredb=1 / bime=1 / keyint=3600 / keyint_min=5 / scenecut=80 / rc=crf / crf=20.0 / rceq='blurCplx^(1-qComp)' / qcomp=0.25 / qpmin=16 / qpmax=51 / qpstep=8 / ip_ratio=1.40 / pb_ratio=2.00 / aq=3:3:0.60
Encoded date                   : UTC 2008-06-03 19:11:40
Tagged date                    : UTC 2008-06-03 19:34:09
Codec configuration box        : avcC

Audio
ID                             : 2
Format                         : AAC LC SBR
Format/Info                    : Advanced Audio Codec Low Complexity with Spectral Band Replication
Commercial name                : HE-AAC
Format settings                : Explicit
Codec ID                       : mp4a-40-2
Duration                       : 1 h 40 min
Bit rate mode                  : Variable
Bit rate                       : 109 kb/s
Maximum bit rate               : 135 kb/s
Channel(s)                     : 6 channels
Channel layout                 : C L R Ls Rs LFE
Sampling rate                  : 44.1 kHz
Frame rate                     : 21.533 FPS (2048 SPF)
Compression mode               : Lossy
Stream size                    : 78.3 MiB (4%)
Encoded date                   : UTC 2008-06-03 19:16:35
Tagged date                    : UTC 2008-06-03 19:34:09

LakersSpurs50854227-700x420.jpg
Part2.mp4.jpg
usa-today-8267853.0.jpg


购买主题 已有 5 人购买  本主题需向作者支付 5 哇币 才能浏览
积极参与短视频推广,可联系管理员免费兑换会员使用阅读权限~

4273

主题

1万

帖子

2万

积分

版主

挂着“版主”的“督察”

Rank: 70Rank: 70Rank: 70Rank: 70Rank: 70Rank: 70

积分
20495
哇币
177057
部落号角
337

乐于助人宣传达人查水使者哇哈富翁版主专属在线达人

发表于 2019-8-10 16:11 | 显示全部楼层
感谢发资源,不过收费帖请记得在非收费信息使用free代码,不然截图或视频信息都必须购买了才能看到。
另外标题需注明清楚解析度(如720P)体积大小(如5G)和下载方式(如BT)。
还有2012和更久远的比赛统一发到历史资源区,谢谢合作与理解
回复 支持 反对

使用道具 举报

*滑动验证:
您需要登录后才可以回帖 登录 | 注册

本版积分规则

Archiver|手机版|小黑屋|广告合作|哇哈体育

GMT+8, 2019-12-9 21:43

Powered by Discuz! X3.4

© 2001-2017 Comsenz Inc.

快速回复 返回顶部 返回列表