哇哈体育

 找回密码
 注册

QQ登录

只需一步,快速开始

搜索
查看: 130|回复: 0

[足球] 2003-04赛季欧冠决赛波尔图-摩纳哥 英语 3.69G MKV 720P 【百度网盘】

[复制链接]

26

主题

207

帖子

295

积分

版主

Rank: 70Rank: 70Rank: 70Rank: 70Rank: 70Rank: 70

积分
295
哇币
9880
部落号角
382
发表于 2019-6-28 15:31 | 显示全部楼层 |阅读模式
出场阵容:

赛后采访魔力鸟:

视频截图:

视频参数:

General
Unique ID                      : 223716302376400688497475161865956566567 (0xA84E314CE2B17B7EBCD539C12E4B2627)
Complete name                  : C:\网盘\UEFA Chanpions League Final 2003-2004 Monaco-Porto(0-3) SkysportHD 720p ENG MKV 3.69G 2004.05.26\UEFA Chanpions League Final 2003-2004 Monaco-Porto(0-3) SkysportHD 720p ENG MKV 3.69G 2004.05.262nd.mkv
Format                         : Matroska
Format version                 : Version 2
File size                      : 2.05 GiB
Duration                       : 57 min 36 s
Overall bit rate mode          : Constant
Overall bit rate               : 5 100 kb/s
Encoded date                   : UTC 2013-10-21 16:28:03
Writing application            : mkvmerge v2.9.7 ('Tenderness') built on Jul  1 2009 18:43:35
Writing library                : libebml v0.7.7 + libmatroska v0.8.1

Video
ID                             : 1
Format                         : AVC
Format/Info                    : Advanced Video Codec
Format profile                 :
High@L3.2
Format settings                : CABAC / 3 Ref Frames
Format settings, CABAC         : Yes
Format settings, ReFrames      : 3 frames
Codec ID                       : V_MPEG4/ISO/AVC
Duration                       : 57 min 36 s
Bit rate mode                  : Constant
Bit rate                       : 5 000 kb/s / 5 000 kb/s
Width                          : 1 280 pixels
Height                         : 720 pixels
Display aspect ratio           : 4:3
Original display aspect ratio  : 16:9
Frame rate mode                : Constant
Frame rate                     : 50.000 FPS
Standard                       : NTSC
Color space                    : YUV
Chroma subsampling             : 4:2:0
Bit depth                      : 8 bits
Scan type                      : Progressive
Bits/(Pixel*Frame)             : 0.109
Stream size                    : 1.96 GiB (96%)
Writing library                : x264 core 114
Encoding settings              : cabac=1 / ref=3 / deblock=1:0:0 / analyse=0x3:0x113 / me=hex / subme=7 / psy=1 / psy_rd=1.00:0.00 / mixed_ref=1 / me_range=16 / chroma_me=1 / trellis=1 / 8x8dct=1 / cqm=0 / deadzone=21,11 / fast_pskip=1 / chroma_qp_offset=-2 / threads=3 / sliced_threads=0 / slices=1 / nr=0 / decimate=1 / interlaced=0 / constrained_intra=0 / bframes=3 / b_pyramid=0 / b_adapt=1 / b_bias=0 / direct=1 / weightb=1 / open_gop=0 / weightp=2 / keyint=250 / keyint_min=25 / scenecut=40 / intra_refresh=0 / rc_lookahead=40 / rc=cbr / mbtree=1 / bitrate=5000 / ratetol=1.0 / qcomp=0.60 / qpmin=0 / qpmax=69 / qpstep=4 / vbv_maxrate=5000 / vbv_bufsize=4997 / nal_hrd=cbr / ip_ratio=1.40 / aq=1:1.00
Default                        : Yes
Forced                         : No
Color range                    : Limited
Color primaries                : BT.709
Transfer characteristics       : BT.709
Matrix coefficients            : BT.709

Audio
ID                             : 2
Format                         : MPEG Audio
Format version                 : Version 1
Format profile                 : Layer 3
Codec ID                       : A_MPEG/L3
Codec ID/Hint                  : MP3
Duration                       : 57 min 36 s
Bit rate mode                  : Constant
Bit rate                       : 128 kb/s
Channel(s)                     : 2 channels
Sampling rate                  : 48.0 kHz
Compression mode               : Lossy
Delay relative to video        : 16 ms
Stream size                    : 52.7 MiB (3%)
Title                          : В.Уткин
Language                       : Russian
Default                        : Yes
Forced                         : No


购买主题 已有 1 人购买  本主题需向作者支付 50 哇币 才能浏览
积极参与短视频推广,可联系管理员免费兑换会员使用阅读权限~
*滑动验证:
您需要登录后才可以回帖 登录 | 注册

本版积分规则

Archiver|手机版|小黑屋|广告合作|哇哈体育

GMT+8, 2019-10-18 20:18

Powered by Discuz! X3.4

© 2001-2017 Comsenz Inc.

快速回复 返回顶部 返回列表