哇哈体育

 找回密码
 注册

QQ登录

只需一步,快速开始

搜索
查看: 93|回复: 0

[足球] 1981-82欧洲优胜者杯半决赛首回合托特纳姆热刺-巴塞罗那 3.46G 西语 DVD 【115+百度云】

[复制链接]

25

主题

121

帖子

179

积分

实习版主

Rank: 60Rank: 60Rank: 60Rank: 60

积分
179
哇币
5665
部落号角
276
发表于 2019-6-20 10:05 | 显示全部楼层 |阅读模式

马上注册,结交更多好友,享用更多功能,让你轻松玩转社区。

您需要 登录 才可以下载或查看,没有帐号?注册

x
本帖最后由 jiaopeng0927 于 2019-6-20 10:41 编辑
无标题.jpg
比赛双方:托特纳姆热刺-巴塞罗那
比赛时间:1982.04.07
比赛地点:白鹿巷球场
比赛结果:1-1
出场阵容:
热刺.jpg 巴萨.jpg
视频截图:
视频截图.jpg
视频参数:

General
Complete name                  : E:\Downloads\@CWC_81-82_1-2_Tottenham-Barcelona\VTS_01_2.VOB
Format                         : MPEG-PS
File size                      : 1 024 MiB
Duration                       : 28 min 49 s
Overall bit rate mode          : Variable
Overall bit rate               : 4 966 kb/s
Video
ID                             : 224 (0xE0)
Format                         : MPEG Video
Format version                 : Version 2
Format profile                 : Main@Main
Format settings                : BVOP
Format settings, BVOP          : Yes
Format settings, Matrix        : Default
Format settings, GOP           : M=3, N=12
Format settings, picture struc : Frame
Duration                       : 28 min 49 s
Bit rate mode                  : Variable
Bit rate                       : 4 611 kb/s
Maximum bit rate               : 9 800 kb/s
Width                          : 720 pixels
Height                         : 576 pixels
Display aspect ratio           : 4:3
Frame rate                     : 25.000 FPS
Standard                       : PAL
Color space                    : YUV
Chroma subsampling             : 4:2:0
Bit depth                      : 8 bits
Scan type                      : Interlaced
Scan order                     : Top Field First
Compression mode               : Lossy
Bits/(Pixel*Frame)             : 0.445
Time code of first frame       : 00:29:01:23
Time code source               : Group of pictures header
GOP, Open/Closed               : Open
Stream size                    : 951 MiB (93%)
Color primaries                : BT.601 PAL
Transfer characteristics       : BT.470 System B/G
Matrix coefficients            : BT.470 System B/G
Audio
ID                             : 189 (0xBD)-128 (0x80)
Format                         : AC-3
Format/Info                    : Audio Coding 3
Commercial name                : Dolby Digital
Muxing mode                    : DVD-Video
Duration                       : 28 min 49 s
Bit rate mode                  : Constant
Bit rate                       : 256 kb/s
Channel(s)                     : 2 channels
Channel layout                 : L R
Sampling rate                  : 48.0 kHz
Frame rate                     : 31.250 FPS (1536 SPF)
Bit depth                      : 16 bits
Compression mode               : Lossy
Delay relative to video        : -232 ms
Stream size                    : 52.8 MiB (5%)
Service kind                   : Complete Main
下载地址:
下载地址.txt (152 Bytes, 下载次数: 13, 售价: 30 哇币)

评分

参与人数 1部落号角 +20 收起 理由
全宝蓝 + 20 老马那时应该还没加盟巴萨

查看全部评分

社区质量人人有责,请勿灌水和重复回帖,否则将会受到处罚。
*滑动验证:
您需要登录后才可以回帖 登录 | 注册

本版积分规则

Archiver|手机版|小黑屋|广告合作|哇哈体育

GMT+8, 2019-7-20 03:52

Powered by Discuz! X3.4

© 2001-2017 Comsenz Inc.

快速回复 返回顶部 返回列表