哇哈体育

 找回密码
 注册

QQ登录

只需一步,快速开始

搜索
查看: 164|回复: 0

[足球] 1997-98赛季西甲第31轮毕尔巴鄂竞技-桑坦德竞技 1.02G 西语 AVI 【百度网盘+115网盘】

[复制链接]

26

主题

185

帖子

266

积分

版主

Rank: 70Rank: 70Rank: 70Rank: 70Rank: 70Rank: 70

积分
266
哇币
9390
部落号角
382
发表于 2019-5-22 14:49 | 显示全部楼层 |阅读模式
比赛结果:
Athletic 4: 3 Racing
0: 1 -Correa(2')
0: 2 -Correa(14')
1: 2 -Etxeberria (47')
2: 2 -Larrazabal (58')
2: 3 -Correa(78')
3: 3-Etxeberria (80')
4: 3-Guerrero (89')
比赛.jpg
出场名单:
1.avi_20190514_165809.136.jpg 1.avi_20190514_165837.297.jpg 1.avi_20190514_165823.616.jpg 1.avi_20190514_165756.903.jpg
视频截图:
1.avi.jpg
视频参数:
General
Complete name                  : E:\[La Liga 1997-98] Athletic - Racing\1st.avi
Format                         : AVI
Format/Info                    : Audio Video Interleave
File size                      : 533 MiB
Duration                       : 52 min 54 s
Overall bit rate               : 1 407 kb/s
Writing application            : VirtualDubMod 1.5.10.2 (build 2540/release)
Writing library                : VirtualDubMod build 2540/release
Video
ID                             : 0
Format                         : xvid
Codec ID                       : xvid
Duration                       : 52 min 54 s
Bit rate                       : 1 299 kb/s
Width                          : 720 pixels
Height                         : 576 pixels
Display aspect ratio           : 5:4
Frame rate                     : 25.000 FPS
Standard                       : PAL
Bits/(Pixel*Frame)             : 0.125
Stream size                    : 492 MiB (92%)
Audio
ID                             : 1
Format                         : MPEG Audio
Format version                 : Version 1
Format profile                 : Layer 3
Format settings                : Joint stereo / MS Stereo
Codec ID                       : 55
Codec ID/Hint                  : MP3
Duration                       : 52 min 54 s
Bit rate mode                  : Constant
Bit rate                       : 96.0 kb/s
Channel(s)                     : 2 channels
Sampling rate                  : 44.1 kHz
Compression mode               : Lossy
Stream size                    : 36.3 MiB (7%)
Alignment                      : Aligned on interleaves
Interleave, duration           : 26  ms (0.65 video frame)
Interleave, preload duration   : 522  ms
购买主题 已有 2 人购买  本主题需向作者支付 10 哇币 才能浏览
社区质量人人有责,请勿灌水和重复回帖,否则将会受到处罚。
*滑动验证:
您需要登录后才可以回帖 登录 | 注册

本版积分规则

Archiver|手机版|小黑屋|广告合作|哇哈体育

GMT+8, 2019-9-23 16:08

Powered by Discuz! X3.4

© 2001-2017 Comsenz Inc.

快速回复 返回顶部 返回列表