哇哈体育

 找回密码
 注册

QQ登录

只需一步,快速开始

搜索
查看: 305|回复: 1

[足球] 2002-2003赛季欧洲联盟杯决赛波尔图—凯尔特人(含颁奖)ZDF电视台 德语 7.77G MPG 【百度网盘】

[复制链接]

26

主题

143

帖子

212

积分

实习版主

Rank: 60Rank: 60Rank: 60Rank: 60

积分
212
哇币
7722
部落号角
382
发表于 2019-5-17 14:23 | 显示全部楼层 |阅读模式
timg.jpg 图.jpg

视频截图:
1.half.mpg.jpg ET.mpg.jpg ET.mpg_20190423_141204.695.jpg 1.half.mpg_20190423_140146.689.jpg 1.half.mpg_20190423_140306.953.jpg 1.half.mpg_20190423_140317.866.jpg 1.half.mpg_20190423_140212.882.jpg 1.half.mpg_20190423_140231.610.jpg
视频参数:
General
Complete name                  : C:\2003.05.212002-2003欧洲联盟杯决赛波尔图 3-2 凯尔特人\1.half.mpg
Format                         : MPEG-PS
File size                      : 2.66 GiB
Duration                       : 59 min 35 s
Overall bit rate mode          : Variable
Overall bit rate               : 6 397 kb/s
Writing library                : encoded by TMPGEnc Authoring Works 4 Version. 4.0.12.42
Video
ID                             : 224 (0xE0)
Format                         : MPEG Video
Format version                 : Version 2
Format profile                 : Main@Main
Format settings                : CustomMatrix / BVOP
Format settings, BVOP          : Yes
Format settings, Matrix        : Custom
Format settings, GOP           : Variable
Format settings, picture struc : Frame
Duration                       : 59 min 35 s
Bit rate mode                  : Variable
Bit rate                       : 5 502 kb/s
Maximum bit rate               : 9 400 kb/s
Width                          : 720 pixels
Height                         : 576 pixels
Display aspect ratio           : 4:3
Frame rate                     : 25.000 FPS
Standard                       : PAL
Color space                    : YUV
Chroma subsampling             : 4:2:0
Bit depth                      : 8 bits
Scan type                      : Interlaced
Scan order                     : Top Field First
Compression mode               : Lossy
Bits/(Pixel*Frame)             : 0.531
Time code of first frame       : 00:00:00:00
Time code source               : Group of pictures header
GOP, Open/Closed               : Open
GOP, Open/Closed of first fram : Closed
Stream size                    : 2.29 GiB (86%)
Writing library                : TMPGEnc Authoring Works 4 Version. 4.0.12.42
Color primaries                : BT.601 PAL
Transfer characteristics       : BT.470 System B/G
Matrix coefficients            : BT.470 System B/G
Audio #1
ID                             : 189 (0xBD)-128 (0x80)
Format                         : AC-3
Format/Info                    : Audio Coding 3
Commercial name                : Dolby Digital
Muxing mode                    : DVD-Video
Duration                       : 59 min 35 s
Bit rate mode                  : Constant
Bit rate                       : 192 kb/s
Channel(s)                     : 2 channels
Channel layout                 : L R
Sampling rate                  : 48.0 kHz
Frame rate                     : 31.250 FPS (1536 SPF)
Bit depth                      : 16 bits
Compression mode               : Lossy
Stream size                    : 81.8 MiB (3%)
Service kind                   : Complete Main
Audio #2
ID                             : 189 (0xBD)-129 (0x81)
Format                         : AC-3
Format/Info                    : Audio Coding 3
Commercial name                : Dolby Digital
Muxing mode                    : DVD-Video
Duration                       : 59 min 35 s
Bit rate mode                  : Constant
Bit rate                       : 192 kb/s
Channel(s)                     : 2 channels
Channel layout                 : L R
Sampling rate                  : 48.0 kHz
Frame rate                     : 31.250 FPS (1536 SPF)
Bit depth                      : 16 bits
Compression mode               : Lossy
Stream size                    : 81.8 MiB (3%)
Service kind                   : Complete Main
Audio #3
ID                             : 189 (0xBD)-130 (0x82)
Format                         : AC-3
Format/Info                    : Audio Coding 3
Commercial name                : Dolby Digital
Muxing mode                    : DVD-Video
Duration                       : 59 min 35 s
Bit rate mode                  : Constant
Bit rate                       : 192 kb/s
Channel(s)                     : 2 channels
Channel layout                 : L R
Sampling rate                  : 48.0 kHz
Frame rate                     : 31.250 FPS (1536 SPF)
Bit depth                      : 16 bits
Compression mode               : Lossy
Stream size                    : 81.8 MiB (3%)
Service kind                   : Complete Main
Audio #4
ID                             : 189 (0xBD)-131 (0x83)
Format                         : AC-3
Format/Info                    : Audio Coding 3
Commercial name                : Dolby Digital
Muxing mode                    : DVD-Video
Duration                       : 59 min 35 s
Bit rate mode                  : Constant
Bit rate                       : 192 kb/s
Channel(s)                     : 2 channels
Channel layout                 : L R
Sampling rate                  : 48.0 kHz
Frame rate                     : 31.250 FPS (1536 SPF)
Bit depth                      : 16 bits
Compression mode               : Lossy
Stream size                    : 81.8 MiB (3%)
Service kind                   : Complete Main
购买主题 已有 4 人购买  本主题需向作者支付 20 哇币 才能浏览
社区质量人人有责,请勿灌水和重复回帖,否则将会受到处罚。

26

主题

143

帖子

212

积分

实习版主

Rank: 60Rank: 60Rank: 60Rank: 60

积分
212
哇币
7722
部落号角
382
 楼主| 发表于 2019-5-17 14:30 | 显示全部楼层
本帖最后由 jiaopeng0927 于 2019-5-17 14:32 编辑

       北京时间2003年5月22日2时45分(西班牙当地时间21日20时45分),在塞维利亚奥林匹克球场开始的欧洲联盟杯决赛中,波尔图在加时赛下半时打进银球,以3比2击败凯尔特人,继1987年夺得冠军杯后首次举起欧洲大赛奖杯。波尔图此役两度领先,但瑞典老将拉尔森两次头槌扳平。双方只得进入加时赛,银球制首战便生效,巴西射手德尔雷打进他在此役的第2球,以12球荣膺本届联盟杯最佳射手。
  赛前,女子演唱组合番茄酱与西班牙传统舞蹈为大赛助兴。凯尔特人缺少小腿受伤的强力中锋哈特森,萨顿重新被推到锋线与拉尔森搭档。到场助威的苏格兰球迷多达3万5千人。波尔图被看作夺冠热门,他们不仅早早夺得联赛冠军,还在半决赛中淘汰了拉齐奥,在上赛季冠军杯中,波尔图曾在主场3比0击败凯尔特人。
  开场4分钟,瓦尔加伦对德尔雷犯规,马尼切在27米外主罚任意球,球被人墙内的拉尔森挡出,保罗-费雷拉在18米外右脚低射直窜右下角,道格拉斯向左侧扑将球扑出。第6分钟,科斯蒂尼亚在中场接应传球,在周围根本无人紧逼的情况下突然倒地,他右腿伤势复发而被担架抬下。第8分钟,瓦尔加伦放倒德科,得到此役首张黄牌。
  科斯蒂尼亚再也无法回场。第9分钟,里卡多-科斯塔替补出场。比赛逐渐陷入僵局。第12分钟,阿加特与瓦伦特冲撞后接受治疗。第21分钟,德科主罚任意球直接小角度射门,道格拉斯前门柱将球抱住。第23分钟,卡普舒妙传,德尔雷右侧小角度凌空低射,道格拉斯将球抱住。
  双方陷入闷战,让人怀疑“银球制”将有用武之处,凯尔特人进攻毫无威力,哈特森缺阵的影响是明显的。第31分钟,阿加特侧后方铲倒阿列尼切夫,被黄牌警告。第34分钟,德尔雷小角度射门被道格拉斯没收,凯尔特人马上反击,拉尔森中路分球,阿加特右侧传中,可惜门前争顶的萨顿没碰到球。
  第40分钟,卡普舒在禁区混战中倚住后卫,德尔雷跟上射门没碰到球。第42分钟,德科右脚挑过一名后卫,转身突破两名后卫的包夹,右肋突入禁区小角度低射,道格拉斯近门柱挡出底线。上半时补时阶段,凯尔特人后防在禁区前沿解围失误,球落到德科脚下,德科巧妙搓球转移到左侧,阿列尼切夫左脚凌空射门,道格拉斯将球封出,德尔雷右侧小角度补射入网,波尔图1比0领先。
  下半时双方准备开球时,一名球迷突然冲入场内向主裁判出示红牌,然后脱衣裸奔,警察马上将他带出场外。第47分钟,阿加特右路传中,拉尔森后门柱高高跃起力压后卫头球攻门,球略带弧线撞远门柱入网,凯尔特人扳为1比1。这是拉尔森效力该队的第200球。第49分钟,德尔雷在禁区前沿将球打飞。第50分钟,瓦尔加伦铲伤德尔雷右脚踝,德尔雷被担架抬下接受短暂治疗。
  第54分钟,波尔图中场长传,卡普舒在禁区边缘吸引了2名后卫,巴尔德抢先将球顶出,德科拿球后顺势一扣,闪开瓦尔加伦的滑铲,他在横向带球时突然右脚外脚背轻轻一弹,将球送到左侧空档,及时插上的阿列尼切夫在门前9米处右脚推射,球从道格拉斯腋下入网,波尔图2比1再次超出。从摆脱扯动到及时分球,德科一气呵成,体现了一流前腰的精湛技术与敏锐意识。
  第56分钟,汤普森左路长传禁区,瓦伦特头球回传门将力量稍大,险些自摆乌龙,幸亏落在球门上方的球网上,汤普森右侧开出角球,拉尔森突然起动摆脱后卫,在禁区中央距门7米处甩头顶进远角,比分改写为2比2。此后,两队在防守上再也不敢大意。第58分钟,保罗-费雷拉在22米外右脚低射偏出左门柱。第59分钟,伦农绊倒德尔雷,被黄牌警告。
  第61分钟,瓦尔加伦与卡普舒争顶时头部相撞双双倒地,第63分钟,阿加特右路反击,瓦伦特战术犯规吃黄牌警告。第64分钟,丹麦后卫尤-劳尔森换下瓦尔加伦。第72分钟,德尔雷在禁区边缘右脚抽射,道格拉斯扑球脱手,但无人跟进补射,道格拉斯将球得到。两队队长若热-科斯塔与兰伯特先后被换下。
  第80分钟,巴尔德“伐倒”德科,被黄牌警告。第84分钟,德科左侧开出角球,凯尔特人后卫密集在禁区内,但德科出人意料地直接开到禁区前沿,阿列尼切夫在门前20米处右脚凌空射门偏出右门柱。补时最后几秒钟,阿列尼切夫前场断球,在禁区前沿抽射偏出,他腿部抽筋倒地。两队球员都已经非常疲劳,尤其是波尔图球员明显体力不支,加时赛对他们无疑是严峻考验。
  在短短几分钟休息时间里,队医抓紧时间给队员放松腿部肌肉。加时赛开始5分钟,德尔雷中场带球被巴尔德铲倒,巴尔德累计2张黄牌被罚下。第102分钟,保加利亚中场彼得罗夫身后拉拽德科,被黄牌警告。第105分钟,令人失望彼得罗夫被新秀马洛尼换下。加时赛上半时结束后,银球制实际上已“失效”。由于体力消耗太大,两队队员几乎只能在场上踱步。
  凯尔特人体力占优,波尔图看不出有人数优势。第109分钟,汤普森在边线附近撞飞卡瓦略,但没有得到黄牌。眼看就要进入点球大战。第115分钟,波尔图中场突然直传,替补马科-费雷拉虽然没有拿到球,但干扰了对方门将,道格拉斯只能倒地将球封出,德尔雷得球晃过后卫,在门前14米处右脚射门,球击中道格拉斯手臂稍稍变向,拉尔森与站在球门线上的米亚尔比都没碰到球,波尔图3比2领先。
  比分领先的波尔图开始想方设法拖延时间。第118分钟,汤普森右侧开出任意球,巴亚轻松将球摘到,他准备开始时被绊了一下,他极其夸张地连滚两下,倒在禁区外,用手摸着“受伤”的左小腿,长时间不肯起来,奥尼尔在场边非常不满。终场前,凯尔特人连续开出角球,但没有形成威胁。补时第3分钟,瓦伦特对汤普森战术犯规,累计2张黄牌被罚下。
   
    出场阵容:

  凯尔特人(3-5-2):20-道格拉斯/6-巴尔德,35-米亚尔比,5-瓦尔加伦(16-劳尔森,第64分钟)/17-阿加特,14-兰伯特(4-麦克纳马拉,第76分钟),18-伦农,19-彼得罗夫(29-马洛尼,第105分钟),8-汤普森/7-拉尔森,9-萨顿。

  波尔图(4-1-3-2):99-巴亚/22-保罗-费雷拉,4-卡瓦略,2-若热-科斯塔(3-埃马努尔,第72分钟),4-瓦伦特/6-科斯蒂尼亚(5-里卡多-科斯塔,第9分钟)/18-马尼切,10-德科,15-阿列尼切夫/11-德尔雷,21-卡普舒(马科-费雷拉,第98分钟)。
社区质量人人有责,请勿灌水和重复回帖,否则将会受到处罚。
回复 支持 反对

使用道具 举报

*滑动验证:
您需要登录后才可以回帖 登录 | 注册

本版积分规则

Archiver|手机版|小黑屋|广告合作|哇哈体育

GMT+8, 2019-8-20 23:50

Powered by Discuz! X3.4

© 2001-2017 Comsenz Inc.

快速回复 返回顶部 返回列表