哇哈体育

 找回密码
 注册

QQ登录

只需一步,快速开始

搜索
查看: 110|回复: 1

[足球] 1994-95欧洲联盟杯第1轮首回合勒沃库森-埃因霍温(罗纳尔多欧战处子秀)RTL电视台 德语 4.04G DVD 【百度网盘+115网盘】

[复制链接]

14

主题

47

帖子

79

积分

实习版主

Rank: 60Rank: 60Rank: 60Rank: 60

积分
79
哇币
2550
部落号角
179
发表于 2019-5-15 14:28 | 显示全部楼层 |阅读模式
QQ截图20190515135817.jpg
比赛时间:1994.09.13
比赛地点:勒沃库森主场-哈勃兰体育场(Ulrich-Haberland-Stadion)
主裁判:Laszlo Fagner(匈牙利)
观众人数:16000人
比赛看点:1994年世界杯结束后,罗纳尔多加盟埃因霍温队,开启自己欧陆职业生涯。本场比赛,还差5天才满18岁的罗纳尔多,初登欧洲三大杯舞台,即展示出恐怖的个人能力,面对拥有舒斯特尔,基尔斯滕,沃恩斯等名将的德甲劲旅勒沃库森队,上演帽子戏法!!!
20180702055252_09c820aae63bbb76fba18bc2dd5faa02_4.jpeg 8C09G78F00CO0005.jpg 9bbd0f16776e48ada33e0414dbfe743f.jpeg
视频截图: 勒沃库森阵容.jpg 埃因霍温阵容.jpg 罗纳尔多.jpg 比分.jpg VTS_01_2.VOB.jpg
视频参数:
General
Complete name                  : E:\Downloads\Bayer-PSV 13-09-94\VIDEO_TS\VTS_01_2.VOB
Format                         : MPEG-PS
File size                      : 1 024 MiB
Duration                       : 23 min 43 s
Overall bit rate mode          : Variable
Overall bit rate               : 6 036 kb/s
Video
ID                             : 224 (0xE0)
Format                         : MPEG Video
Format version                 : Version 2
Format profile                 : Main@Main
Format settings                : BVOP
Format settings, BVOP          : Yes
Format settings, Matrix        : Default
Format settings, GOP           : M=3, N=15
Format settings, picture struc : Frame
Duration                       : 23 min 42 s
Bit rate mode                  : Variable
Bit rate                       : 5 724 kb/s
Maximum bit rate               : 7 700 kb/s
Width                          : 720 pixels
Height                         : 480 pixels
Display aspect ratio           : 4:3
Frame rate                     : 29.970 (30000/1001) FPS
Standard                       : NTSC
Color space                    : YUV
Chroma subsampling             : 4:2:0
Bit depth                      : 8 bits
Scan type                      : Interlaced
Scan order                     : Top Field First
Compression mode               : Lossy
Bits/(Pixel*Frame)             : 0.553
Time code of first frame       : 00:26:28:00
Time code source               : Group of pictures header
GOP, Open/Closed               : Open
Stream size                    : 971 MiB (95%)
Color primaries                : BT.601 NTSC
Transfer characteristics       : BT.601
Matrix coefficients            : BT.601
Audio
ID                             : 189 (0xBD)-128 (0x80)
Format                         : AC-3
Format/Info                    : Audio Coding 3
Commercial name                : Dolby Digital
Muxing mode                    : DVD-Video
Duration                       : 23 min 43 s
Bit rate mode                  : Constant
Bit rate                       : 192 kb/s
Channel(s)                     : 2 channels
Channel layout                 : L R
Sampling rate                  : 48.0 kHz
Frame rate                     : 31.250 FPS (1536 SPF)
Bit depth                      : 16 bits
Compression mode               : Lossy
Delay relative to video        : -196 ms
Stream size                    : 32.6 MiB (3%)
Service kind                   : Complete Main
Menu

购买主题 已有 5 人购买  本主题需向作者支付 30 哇币 才能浏览
社区质量人人有责,请勿灌水和重复回帖,否则将会受到处罚。

14

主题

47

帖子

79

积分

实习版主

Rank: 60Rank: 60Rank: 60Rank: 60

积分
79
哇币
2550
部落号角
179
 楼主| 发表于 2019-5-15 14:51 | 显示全部楼层
沙发自己坐啊,有木有人支持啊
社区质量人人有责,请勿灌水和重复回帖,否则将会受到处罚。
回复 支持 反对

使用道具 举报

*滑动验证:
您需要登录后才可以回帖 登录 | 注册

本版积分规则

×本站发帖友情提示
1、注册用户在本社区发表、转载的任何作品仅代表其个人观点,不代表本社区认同其观点。
2、如果存在违反国家相关法律、法规、条例的行为,我们有权在不经作者准许的情况下删除其在本论坛所发表的文章。
3、所有网友不要盗用有明确版权要求的作品,转贴请注明来源,否则文责自负。
4、本社区保护注册用户个人资料,但是在自身原因导致个人资料泄露、丢失、被盗或篡改,本论坛概不负责,也不承担相应法律责任。

Archiver|手机版|小黑屋|广告合作|哇哈体育  

GMT+8, 2019-5-25 02:26

Powered by Discuz! X3.3

© 2001-2017 Comsenz Inc.

快速回复 返回顶部 返回列表