哇哈体育

 找回密码
 注册

QQ登录

只需一步,快速开始

搜索
查看: 192|回复: 3

[足球] 【经典分享1】1990.10.17 1992年欧洲杯预选赛第六小组 葡萄牙-荷兰 AVI 987M (640*480)【百度网盘】

[复制链接]

26

主题

148

帖子

218

积分

实习版主

Rank: 60Rank: 60Rank: 60Rank: 60

积分
218
哇币
7827
部落号角
382
发表于 2019-4-18 10:07 | 显示全部楼层 |阅读模式

1990年10月17日 欧锦赛预选赛第六小组
葡萄牙1-0荷兰
进球者:Rui Aguas (第54分钟)
比赛介绍:
这是两国足球史上的第一次交手,喜欢葡萄牙足球的朋友们,一定不会忘记91年这个伟大的年份。这一年菲戈,鲁伊科斯塔领军的黄金一代在91年世青赛上夺魁,标志着葡萄牙足球全面复苏的开始。但90年的葡萄牙继86欧锦赛再度打进四强后,阵容衰老,青黄不接,已经到了更新换代迫在眉睫的时候。相反90年的荷兰武装到牙齿,拥有该国足球史上最豪华的阵容。三剑客,科曼,温特,德波尔,维茨格,博格坎普。小组第一个主场比赛就是挑战荷兰,难度可想而知。谁也没想到,就是这样的一支葡萄牙坐镇主场居然1比0气走了荷兰,也从此揭开了之后18年的镇压史序幕。

比赛事件.jpg
1992预选赛葡萄牙VS荷兰.avi.jpg

视频参数:
General
Complete name                  : C:\网盘\哇哈\1992欧洲杯预选赛葡萄牙VS荷兰.avi
Format                         : AVI
Format/Info                    : Audio Video Interleave
File size                      : 988 MiB
Duration                       : 1 h 47 min
Overall bit rate mode          : Variable
Overall bit rate               : 1 290 kb/s
Writing library                : VirtualDub build 32817/release

Video
ID                             : 0
Format                         : MPEG-4 Visual
Format profile                 : Advanced Simple@L5
Format settings                : BVOP1 / Custom Matrix
Format settings, BVOP          : 1
Format settings, QPel          : No
Format settings, GMC           : No warppoints
Format settings, Matrix        : Custom
Codec ID                       : XVID
Codec ID/Hint                  : XviD
Duration                       : 1 h 47 min
Bit rate                       : 1 180 kb/s
Width                          : 640 pixels
Height                         : 480 pixels
Display aspect ratio           : 4:3
Frame rate                     : 25.000 FPS
Color space                    : YUV
Chroma subsampling             : 4:2:0
Bit depth                      : 8 bits
Scan type                      : Progressive
Compression mode               : Lossy
Bits/(Pixel*Frame)             : 0.154
Stream size                    : 903 MiB (91%)
Writing library                : XviD 1.2.0.dev47 (UTC 2006-11-01)

Audio
ID                             : 1
Format                         : MPEG Audio
Format version                 : Version 1
Format profile                 : Layer 3
Format settings                : Joint stereo / MS Stereo
Codec ID                       : 55
Codec ID/Hint                  : MP3
Duration                       : 1 h 47 min
Bit rate mode                  : Variable
Bit rate                       : 105 kb/s
Channel(s)                     : 2 channels
Sampling rate                  : 48.0 kHz
Compression mode               : Lossy
Stream size                    : 75.0 MiB (8%)
Alignment                      : Aligned on interleaves
Interleave, duration           : 24  ms (0.60 video frame)
Interleave, preload duration   : 409  ms

购买主题 已有 3 人购买  本主题需向作者支付 30 哇币 才能浏览
社区质量人人有责,请勿灌水和重复回帖,否则将会受到处罚。

304

主题

9133

帖子

1万

积分

超级版主

笑容甜死你

Rank: 75Rank: 75Rank: 75

积分
12078
哇币
207168
部落号角
649

哇哈帅哥贴图达人乐于助人宣传达人哇哈红人查水使者特殊贡献超版专属

发表于 2019-4-18 10:30 | 显示全部楼层
本帖最后由 joshuat 于 2019-4-18 10:32 编辑

2012年之前的影片要發布在"歷史區"  (包含2012). 幫轉版
下載區請勿使用hide語法. 幫修改語法
發帖相關規則及教學 請看此帖
https://bbs.52waha.com/thread-484261-1-1.html
謝謝了
2019.4.18
回复 支持 反对

使用道具 举报

26

主题

148

帖子

218

积分

实习版主

Rank: 60Rank: 60Rank: 60Rank: 60

积分
218
哇币
7827
部落号角
382
 楼主| 发表于 2019-4-18 10:34 | 显示全部楼层
joshuat 发表于 2019-4-18 10:30
2012年之前的影片要發布在"歷史區"  (包含2012). 幫轉版
下載區請勿使用hide語法. 幫修改語法
發帖相關規 ...

谢谢J版,本意是打算通过隐藏增加回复量,然后通过购买筛除小号恶意灌水,多谢提醒,马上去学习
社区质量人人有责,请勿灌水和重复回帖,否则将会受到处罚。
回复 支持 反对

使用道具 举报

304

主题

9133

帖子

1万

积分

超级版主

笑容甜死你

Rank: 75Rank: 75Rank: 75

积分
12078
哇币
207168
部落号角
649

哇哈帅哥贴图达人乐于助人宣传达人哇哈红人查水使者特殊贡献超版专属

发表于 2019-4-18 10:35 | 显示全部楼层
jiaopeng0927 发表于 2019-4-18 10:34
谢谢J版,本意是打算通过隐藏增加回复量,然后通过购买筛除小号恶意灌水,多谢提醒,马上去学习


目前下載區只有版主可以留言. 一般用戶無權限在下載區留言
所以設定Hide語法  用戶不管有沒有購買 都一樣看不到載點
hide語法 目前只適用於討論區  
我在教學帖內有說明
回复 支持 反对

使用道具 举报

*滑动验证:
您需要登录后才可以回帖 登录 | 注册

本版积分规则

Archiver|手机版|小黑屋|广告合作|哇哈体育

GMT+8, 2019-8-23 09:47

Powered by Discuz! X3.4

© 2001-2017 Comsenz Inc.

快速回复 返回顶部 返回列表