哇哈体育

 找回密码
 注册

QQ登录

只需一步,快速开始

搜索
查看: 167|回复: 1

[巡回赛] 2019.04.07 马来西亚羽球公开赛 男单决赛 林丹 v 谌龙 [BWF 官方][英语][2.2 G/1080P][百度 ]

[复制链接]

13

主题

111

帖子

149

积分

视频组

Rank: 60Rank: 60Rank: 60Rank: 60

积分
149
哇币
2879
部落号角
26
发表于 2019-4-8 14:43 | 显示全部楼层 |阅读模式


【请尊重我们的辛苦劳动,资源来自互联网,转帖者请注明出自哇哈体育!】

2019.04.07 马来西亚羽球公开赛 男单决赛 林丹 v  谌龙

【Badminton World Tour - Malaysia Open】 Final -Men's Lin Dan (CHN) v Chen Long (CHN)】

解说: 英语

视频: MP4, 1080P (1920*1080)

vlcsnap-2019-04-08-01h41m01s447.png

vlcsnap-2019-04-08-01h42m01s673.png

vlcsnap-2019-04-08-01h42m29s578.png


购买主题 已有 26 人购买  本主题需向作者支付 5 哇币 才能浏览
社区质量人人有责,请勿灌水和重复回帖,否则将会受到处罚。

1533

主题

9289

帖子

1万

积分

版主

Rank: 70Rank: 70Rank: 70Rank: 70Rank: 70Rank: 70

积分
13667
哇币
443570
部落号角
769

特殊贡献哇哈富翁

发表于 2019-4-8 15:20 | 显示全部楼层
本帖最后由 whyau 于 2019-4-8 15:58 编辑
比whyau的1.4G还大,应该是未被yt压缩前^^

我那1.4G的是直播时的30fps版 (HLS,格式=95),并略去首尾无关的部分 (1.56 - 1.41 = 0.15GB 或 1:38:30 - 1:32:24 = 6:06)
这个是直播结束後约半小时youtube整理的25fps版 (DASH,格式=137+140),全长1:35:55。
如今youtube上能下到的才是二度压缩版 (格式=137+140),全长1:35:55,约1.37GB。

  1. 1,683,533,184 30fps F _ MS _ CHEN Long (CHN) [4] vs LIN Dan (CHN) _ BWF 2019-nUKzwRPI68A.mp4  1:38:30
  2. 1,519,533,929 2019mo.F.ms.CL[chn]-[chn]LD~y10-30[92m]c103.mp4  1:32:24
  3. 2,318,881,342 25fps F _ MS _ CHEN Long (CHN) [4] vs LIN Dan (CHN) _ BWF 2019-nUKzwRPI68A.mp4  1:35:55

  4. F:\2019\2019MO>youtube-dl -F https://www.youtube.com/watch?v=nUKzwRPI68A
  5. [youtube] nUKzwRPI68A: Downloading webpage
  6. [youtube] nUKzwRPI68A: Downloading video info webpage
  7. [info] Available formats for nUKzwRPI68A:
  8. format code  extension  resolution note
  9. ...
  10. 140          m4a        audio only DASH audio  135k , m4a_dash container, mp4a.40.2@128k, 88.83MiB
  11. ...
  12. 137          mp4        1920x1080  1080p 4336k , avc1.640028, 25fps, video only, 1.28GiB
复制代码


30fps HLS版的视频參数
  1. Format                                   : AVC
  2. Format/Info                              : Advanced Video Codec
  3. Format profile                           : High@L4
  4. Format settings, CABAC                   : Yes
  5. Format settings, ReFrames                : 1 frame
  6. Codec ID                                 : avc1
  7. Codec ID/Info                            : Advanced Video Coding
  8. Duration                                 : 1 h 38 min
  9. Bit rate                                 : 2 147 kb/s
  10. Width                                    : 1 920 pixels
  11. Height                                   : 1 080 pixels
  12. Display aspect ratio                     : 16:9
  13. Frame rate mode                          : Constant
  14. Frame rate                               : 30.000 FPS
  15. Color space                              : YUV
  16. Chroma subsampling                       : 4:2:0
  17. Bit depth                                : 8 bits
  18. Scan type                                : Progressive
  19. Bits/(Pixel*Frame)                       : 0.035
  20. Stream size                              : 1.48 GiB (94%)
复制代码


25fps DASH版的视频參数
  1. Format                                   : AVC
  2. Format/Info                              : Advanced Video Codec
  3. Format profile                           : High@L4
  4. Format settings, CABAC                   : Yes
  5. Format settings, ReFrames                : 3 frames
  6. Codec ID                                 : avc1
  7. Codec ID/Info                            : Advanced Video Coding
  8. Duration                                 : 1 h 35 min
  9. Bit rate                                 : 3 090 kb/s
  10. Width                                    : 1 920 pixels
  11. Height                                   : 1 080 pixels
  12. Display aspect ratio                     : 16:9
  13. Frame rate mode                          : Constant
  14. Frame rate                               : 25.000 FPS
  15. Color space                              : YUV
  16. Chroma subsampling                       : 4:2:0
  17. Bit depth                                : 8 bits
  18. Scan type                                : Progressive
  19. Bits/(Pixel*Frame)                       : 0.060
  20. Stream size                              : 2.07 GiB (96%)
复制代码

评分

参与人数 2哇币 +16 收起 理由
Flylib + 10 谢谢大神。明白了
vct + 6 赞一个!ok,明白了^^

查看全部评分

资源来自网络,仅供学习自用,勿作商业用途,否则後果自负——羽毛球赛事搬运工
回复 支持 反对

使用道具 举报

*滑动验证:
您需要登录后才可以回帖 登录 | 注册

本版积分规则

×本站发帖友情提示
1、注册用户在本社区发表、转载的任何作品仅代表其个人观点,不代表本社区认同其观点。
2、如果存在违反国家相关法律、法规、条例的行为,我们有权在不经作者准许的情况下删除其在本论坛所发表的文章。
3、所有网友不要盗用有明确版权要求的作品,转贴请注明来源,否则文责自负。
4、本社区保护注册用户个人资料,但是在自身原因导致个人资料泄露、丢失、被盗或篡改,本论坛概不负责,也不承担相应法律责任。

Archiver|手机版|小黑屋|广告合作|哇哈体育  

GMT+8, 2019-4-20 15:21

Powered by Discuz! X3.3

© 2001-2017 Comsenz Inc.

快速回复 返回顶部 返回列表