哇哈体育

 找回密码
 注册

QQ登录

只需一步,快速开始

搜索
查看: 1591|回复: 0

[MMA] [纪录][2019][铩羽/Losers 第一季][全08集打包][英语中字][MKV][720P/1080P][片源][BT下载]

[复制链接]

1864

主题

5096

帖子

1万

积分

半年VIP

Rank: 30Rank: 30

积分
11918
哇币
209265
部落号角
1323

版主专属特殊贡献宣传达人查水使者哇哈富翁

发表于 2019-3-30 00:56 | 显示全部楼层 |阅读模式

马上注册,结交更多好友,享用更多功能,让你轻松玩转社区。

您需要 登录 才可以下载或查看,没有帐号?注册

x
本帖最后由 yalocovic 于 2019-3-30 01:07 编辑
-2ed7761e61269d7ce6653bf287f1bc2f.jpg
◎译  名 铩羽 / 败局启示录
◎片  名 Losers
◎年  代 2019
◎产  地 美国
◎类  别 纪录片 / 运动
◎语  言 英语
◎上映日期 2019-03-01(美国)
◎IMDb评分 7.9/10 from 302 users
◎IMDb链接 http://www.imdb.com/title/tt9817218
◎BT之家整理 http://8btbtt.com/
◎集  数 8


◎简  介  

  在「赢才是一切」的社会,我们要如何面对失败?这部影集的主角是一群将失败的痛苦,转化为人类胜利的运动员。
注:Netflix版片源 内含官方中字  自带字幕较多自行切换 更多字幕详见下面参数列表
Video
ID : 1
Format : AVC
Format/Info : Advanced Video Codec
Format profile : Main@L4
Format settings : CABAC / 3 Ref Frames
Format settings, CABAC : Yes
Format settings, ReFrames : 3 frames
Codec ID : V_MPEG4/ISO/AVC
Duration : 24 min 57 s
Bit rate mode : Variable
Bit rate : 7 500 kb/s
Maximum bit rate : 11.2 Mb/s
Width : 1 920 pixels
Height : 1 080 pixels
Display aspect ratio : 16:9
Frame rate mode : Constant
Frame rate : 23.976 (24000/1001) FPS
Color space : YUV
Chroma subsampling : 4:2:0
Bit depth : 8 bits
Scan type : Progressive
Bits/(Pixel*Frame) : 0.151
Stream size : 1.28 GiB (95%)
Writing library : x264 core 148 r2715 7e75228
Encoding settings : cabac=1 / ref=3 / deblock=1:0:0 / analyse=0x1:0x111 / me=umh / subme=10 / psy=1 / psy_rd=1.00:0.00 / mixed_ref=1 / me_range=24 / chroma_me=1 / trellis=2 / 8x8dct=0 / cqm=0 / deadzone=21,11 / fast_pskip=1 / chroma_qp_offset=-2 / threads=8 / lookahead_threads=1 / sliced_threads=0 / nr=0 / decimate=1 / interlaced=0 / bluray_compat=0 / stitchable=1 / constrained_intra=0 / bframes=2 / b_pyramid=0 / b_adapt=2 / b_bias=0 / direct=3 / weightb=1 / open_gop=0 / weightp=2 / keyint=48 / keyint_min=25 / scenecut=0 / intra_refresh=0 / rc_lookahead=48 / rc=2pass / mbtree=1 / bitrate=7500 / ratetol=1.0 / qcomp=0.50 / qpmin=6 / qpmax=51 / qpstep=4 / cplxblur=20.0 / qblur=0.5 / vbv_maxrate=11250 / vbv_bufsize=15000 / nal_hrd=vbr / filler=0 / ip_ratio=1.40 / aq=1:1.00
Default : Yes
Forced : No

Audio
ID : 2
Format : AC-3
Format/Info : Audio Coding 3
Commercial name : Dolby Digital
Codec ID : A_AC3
Duration : 24 min 58 s
Bit rate mode : Constant
Bit rate : 384 kb/s
Channel(s) : 6 channels
Channel layout : L R C LFE Ls Rs
Sampling rate : 48.0 kHz
Frame rate : 31.250 FPS (1536 SPF)
Bit depth : 16 bits
Compression mode : Lossy
Stream size : 68.6 MiB (5%)
Title : English
Language : English
Service kind : Complete Main
Default : Yes
Forced : No

Text #1
ID : 3
Format : UTF-8
Codec ID : S_TEXT/UTF8
Codec ID/Info : UTF-8 Plain Text
Duration : 23 min 48 s
Bit rate : 101 b/s
Count of elements : 453
Stream size : 17.7 KiB (0%)
Title : English [SDH]
Language : English
Default : No
Forced : No

Text #2
ID : 4
Format : UTF-8
Codec ID : S_TEXT/UTF8
Codec ID/Info : UTF-8 Plain Text
Duration : 24 min 17 s
Bit rate : 83 b/s
Count of elements : 437
Stream size : 14.8 KiB (0%)
Title : Castilian
Language : Spanish
Default : No
Forced : No

Text #3
ID : 5
Format : UTF-8
Codec ID : S_TEXT/UTF8
Codec ID/Info : UTF-8 Plain Text
Duration : 24 min 17 s
Bit rate : 82 b/s
Count of elements : 455
Stream size : 14.7 KiB (0%)
Title : Spanish
Language : Spanish
Default : No
Forced : No

Text #4
ID : 6
Format : UTF-8
Codec ID : S_TEXT/UTF8
Codec ID/Info : UTF-8 Plain Text
Duration : 24 min 17 s
Bit rate : 92 b/s
Count of elements : 447
Stream size : 16.5 KiB (0%)
Title : French
Language : French
Default : No
Forced : No

Text #5
ID : 7
Format : UTF-8
Codec ID : S_TEXT/UTF8
Codec ID/Info : UTF-8 Plain Text
Duration : 24 min 15 s
Bit rate : 92 b/s
Count of elements : 459
Stream size : 16.5 KiB (0%)
Title : German
Language : German
Default : No
Forced : No

Text #6
ID : 8
Format : UTF-8
Codec ID : S_TEXT/UTF8
Codec ID/Info : UTF-8 Plain Text
Duration : 24 min 18 s
Bit rate : 96 b/s
Count of elements : 437
Stream size : 17.1 KiB (0%)
Title : Italian
Language : Italian
Default : No
Forced : No

Text #7
ID : 9
Format : UTF-8
Codec ID : S_TEXT/UTF8
Codec ID/Info : UTF-8 Plain Text
Duration : 24 min 17 s
Bit rate : 87 b/s
Count of elements : 407
Stream size : 15.5 KiB (0%)
Title : Portuguese
Language : Portuguese
Default : No
Forced : No

Text #8
ID : 10
Format : UTF-8
Codec ID : S_TEXT/UTF8
Codec ID/Info : UTF-8 Plain Text
Duration : 24 min 17 s
Bit rate : 87 b/s
Count of elements : 423
Stream size : 15.6 KiB (0%)
Title : Brazilian Portuguese
Language : Portuguese
Default : No
Forced : No

Text #9
ID : 11
Format : UTF-8
Codec ID : S_TEXT/UTF8
Codec ID/Info : UTF-8 Plain Text
Duration : 24 min 17 s
Bit rate : 84 b/s
Count of elements : 407
Stream size : 15.0 KiB (0%)
Title : Polish
Language : Polish
Default : No
Forced : No

Text #10
ID : 12
Format : UTF-8
Codec ID : S_TEXT/UTF8
Codec ID/Info : UTF-8 Plain Text
Duration : 24 min 17 s
Bit rate : 91 b/s
Count of elements : 457
Stream size : 16.3 KiB (0%)
Title : Turkish
Language : Turkish
Default : No
Forced : No

Text #11
ID : 13
Format : UTF-8
Codec ID : S_TEXT/UTF8
Codec ID/Info : UTF-8 Plain Text
Duration : 24 min 18 s
Bit rate : 88 b/s
Count of elements : 357
Stream size : 15.8 KiB (0%)
Title : Swedish
Language : Swedish
Default : No
Forced : No

Text #12
ID : 14
Format : UTF-8
Codec ID : S_TEXT/UTF8
Codec ID/Info : UTF-8 Plain Text
Duration : 24 min 17 s
Bit rate : 86 b/s
Count of elements : 418
Stream size : 15.4 KiB (0%)
Title : Danish
Language : Danish
Default : No
Forced : No

Text #13
ID : 15
Format : UTF-8
Codec ID : S_TEXT/UTF8
Codec ID/Info : UTF-8 Plain Text
Duration : 24 min 17 s
Bit rate : 86 b/s
Count of elements : 338
Stream size : 15.5 KiB (0%)
Title : Finnish
Language : Finnish
Default : No
Forced : No

Text #14
ID : 16
Format : UTF-8
Codec ID : S_TEXT/UTF8
Codec ID/Info : UTF-8 Plain Text
Duration : 24 min 17 s
Bit rate : 76 b/s
Count of elements : 438
Stream size : 13.6 KiB (0%)
Title : Dutch
Language : Dutch
Default : No
Forced : No

Text #15
ID : 17
Format : UTF-8
Codec ID : S_TEXT/UTF8
Codec ID/Info : UTF-8 Plain Text
Duration : 24 min 18 s
Bit rate : 85 b/s
Count of elements : 388
Stream size : 15.1 KiB (0%)
Title : Norwegian
Language : Norwegian
Default : No
Forced : No

Text #16
ID : 18
Format : UTF-8
Codec ID : S_TEXT/UTF8
Codec ID/Info : UTF-8 Plain Text
Duration : 24 min 18 s
Bit rate : 158 b/s
Count of elements : 461
Stream size : 28.2 KiB (0%)
Title : Russian
Language : Russian
Default : No
Forced : No

Text #17
ID : 19
Format : UTF-8
Codec ID : S_TEXT/UTF8
Codec ID/Info : UTF-8 Plain Text
Duration : 24 min 17 s
Bit rate : 93 b/s
Count of elements : 480
Stream size : 16.7 KiB (0%)
Title : Hungarian
Language : Hungarian
Default : No
Forced : No

Text #18
ID : 20
Format : UTF-8
Codec ID : S_TEXT/UTF8
Codec ID/Info : UTF-8 Plain Text
Duration : 24 min 17 s
Bit rate : 147 b/s
Count of elements : 433
Stream size : 26.2 KiB (0%)
Title : Greek
Language : Greek
Default : No
Forced : No

Text #19
ID : 21
Format : UTF-8
Codec ID : S_TEXT/UTF8
Codec ID/Info : UTF-8 Plain Text
Duration : 23 min 49 s
Bit rate : 144 b/s
Count of elements : 470
Stream size : 25.2 KiB (0%)
Title : Hebrew
Language : Hebrew
Default : No
Forced : No

Text #20
ID : 22
Format : UTF-8
Codec ID : S_TEXT/UTF8
Codec ID/Info : UTF-8 Plain Text
Duration : 23 min 49 s
Bit rate : 161 b/s
Count of elements : 462
Stream size : 28.1 KiB (0%)
Title : Arabic
Language : Arabic
Default : No
Forced : No

Text #21
ID : 23
Format : UTF-8
Codec ID : S_TEXT/UTF8
Codec ID/Info : UTF-8 Plain Text
Duration : 23 min 49 s
Bit rate : 101 b/s
Count of elements : 456
Stream size : 17.7 KiB (0%)
Title : Romanian
Language : Romanian
Default : No
Forced : No

Text #22
ID : 24
Format : UTF-8
Codec ID : S_TEXT/UTF8
Codec ID/Info : UTF-8 Plain Text
Duration : 24 min 17 s
Bit rate : 90 b/s
Count of elements : 458
Stream size : 16.1 KiB (0%)
Title : Czech
Language : Czech
Default : No
Forced : No

Text #23
ID : 25
Format : UTF-8
Codec ID : S_TEXT/UTF8
Codec ID/Info : UTF-8 Plain Text
Duration : 24 min 17 s
Bit rate : 95 b/s
Count of elements : 454
Stream size : 17.0 KiB (0%)
Title : Indonesian
Language : Indonesian
Default : No
Forced : No

Text #24
ID : 26
Format : UTF-8
Codec ID : S_TEXT/UTF8
Codec ID/Info : UTF-8 Plain Text
Duration : 23 min 49 s
Bit rate : 130 b/s
Count of elements : 459
Stream size : 22.8 KiB (0%)
Title : Vietnamese
Language : Vietnamese
Default : No
Forced : No

Text #25
ID : 27
Format : UTF-8
Codec ID : S_TEXT/UTF8
Codec ID/Info : UTF-8 Plain Text
Duration : 23 min 49 s
Bit rate : 233 b/s
Count of elements : 461
Stream size : 40.7 KiB (0%)
Title : Thai
Language : Thai
Default : No
Forced : No

Text #26
ID : 28
Format : UTF-8
Codec ID : S_TEXT/UTF8
Codec ID/Info : UTF-8 Plain Text
Duration : 23 min 49 s
Bit rate : 128 b/s
Count of elements : 467
Stream size : 22.5 KiB (0%)
Title : Korean
Language : Korean
Default : No
Forced : No

Text #27
ID : 29
Format : UTF-8
Codec ID : S_TEXT/UTF8
Codec ID/Info : UTF-8 Plain Text
Duration : 23 min 49 s
Bit rate : 95 b/s
Count of elements : 475
Stream size : 16.7 KiB (0%)
Title : Chinese (Simplified)
Language : Chinese
Default : No
Forced : No

Text #28
ID : 30
Format : UTF-8
Codec ID : S_TEXT/UTF8
Codec ID/Info : UTF-8 Plain Text
Duration : 23 min 49 s
Bit rate : 106 b/s
Count of elements : 471
Stream size : 18.6 KiB (0%)
Title : Chinese (Traditional)
Language : Chinese
Default : No
Forced : No

Text #29
ID : 31
Format : UTF-8
Codec ID : S_TEXT/UTF8
Codec ID/Info : UTF-8 Plain Text
Duration : 23 min 49 s
Bit rate : 117 b/s
Count of elements : 518
Stream size : 20.6 KiB (0%)
Title : Japanese
Language : Japanese
Default : No
Forced : No
16a202e80746b3ae732ace19c53ebfbc.png
-39a938f8a35170660cc93b52d4cf75d1.png
Losers.S01.720p.NF.WEBRip.DD5.1.x264-RCVR.torrent (34.97 KB, 下载次数: 15, 售价: 3 哇币)
*滑动验证:
您需要登录后才可以回帖 登录 | 注册

本版积分规则

Archiver|手机版|小黑屋|广告合作|哇哈体育

GMT+8, 2019-10-16 06:45

Powered by Discuz! X3.4

© 2001-2017 Comsenz Inc.

快速回复 返回顶部 返回列表