哇哈体育

 找回密码
 注册

QQ登录

只需一步,快速开始

搜索
查看: 289|回复: 1

[女排俱乐部联赛] 2019年2月23日 2018-2019赛季土超女排联赛 瓦基弗银行VS伊萨奇巴希[百度云盘/Tencent/李颖/1080p/1.89G/1h21m27s]

[复制链接]

20

主题

225

帖子

465

积分

Lv.13

Rank: 13Rank: 13Rank: 13Rank: 13Rank: 13

积分
465
哇币
26053
部落号角
35
发表于 2019-2-25 14:22 | 显示全部楼层 |阅读模式

马上注册,结交更多好友,享用更多功能,让你轻松玩转社区。

您需要 登录 才可以下载或查看,没有帐号?注册

x
本帖最后由 iamgs 于 2019-3-4 12:01 编辑

20190304:链接已失效,下次请早。

General
Complete name                  : 2019.02.23 VakifBank vs Eczacıbaşı VitrA .mp4
Format                         : MPEG-4
Format profile                 : Base Media
Codec ID                       : isom (isom/iso2/avc1/mp41)
File size                      : 1.89 GiB
Duration                       : 1 h 21 min
Overall bit rate mode          : Variable
Overall bit rate               : 3 318 kb/s
Encoded date                   : UTC 2019-02-24 20:58:51
Tagged date                    : UTC 2019-02-24 20:58:51

Video
ID                             : 1
Format                         : AVC
Format/Info                    : Advanced Video Codec
Format profile                 : High@L4
Format settings, CABAC         : Yes
Format settings, ReFrames      : 3 frames
Codec ID                       : avc1
Codec ID/Info                  : Advanced Video Coding
Duration                       : 1 h 21 min
Bit rate                       : 3 186 kb/s
Width                          : 1 920 pixels
Height                         : 1 080 pixels
Display aspect ratio           : 16:9
Frame rate mode                : Constant
Frame rate                     : 25.000 FPS
Color space                    : YUV
Chroma subsampling             : 4:2:0
Bit depth                      : 8 bits
Scan type                      : Progressive
Bits/(Pixel*Frame)             : 0.061
Stream size                    : 1.81 GiB (96%)
Title                          : ISO Media file produced by Google Inc. Created on: 02/24/2019.
Encoded date                   : UTC 2019-02-24 20:58:51
Tagged date                    : UTC 2019-02-24 20:58:51
Color range                    : Limited
Color primaries                : BT.709
Transfer characteristics       : BT.709
Matrix coefficients            : BT.709

Audio
ID                             : 2
Format                         : AAC
Format/Info                    : Advanced Audio Codec
Format profile                 : LC
Codec ID                       : 40
Duration                       : 1 h 21 min
Bit rate mode                  : Variable
Bit rate                       : 128 kb/s
Channel(s)                     : 2 channels
Channel positions              : Front: L R
Sampling rate                  : 44.1 kHz
Frame rate                     : 43.066 FPS (1024 spf)
Compression mode               : Lossy
Stream size                    : 74.6 MiB (4%)
Title                          : ISO Media file produced by Google Inc. Created on: 02/24/2019.
Default                        : Yes
Alternate group                : 1
Encoded date                   : UTC 2019-02-24 20:14:42
Tagged date                    : UTC 2019-02-24 20:14:42


1.jpg
2.jpg
3.jpg
4.jpg
5.jpg



下载链接(7天有效).txt (59 Bytes, 下载次数: 97, 售价: 6 哇币)
社区质量人人有责,请勿灌水和重复回帖,否则将会受到处罚。

296

主题

7854

帖子

1万

积分

超级版主

笑容甜死你

Rank: 75Rank: 75Rank: 75

积分
10270
哇币
145420
部落号角
338

哇哈帅哥贴图达人乐于助人宣传达人哇哈红人查水使者特殊贡献超版专属

发表于 2019-2-25 14:29 | 显示全部楼层
幫修改語法
2019.2.25
回复 支持 反对

使用道具 举报

*滑动验证:
您需要登录后才可以回帖 登录 | 注册

本版积分规则

×本站发帖友情提示
1、注册用户在本社区发表、转载的任何作品仅代表其个人观点,不代表本社区认同其观点。
2、如果存在违反国家相关法律、法规、条例的行为,我们有权在不经作者准许的情况下删除其在本论坛所发表的文章。
3、所有网友不要盗用有明确版权要求的作品,转贴请注明来源,否则文责自负。
4、本社区保护注册用户个人资料,但是在自身原因导致个人资料泄露、丢失、被盗或篡改,本论坛概不负责,也不承担相应法律责任。

Archiver|手机版|小黑屋|广告合作|哇哈体育  

GMT+8, 2019-3-23 23:35

Powered by Discuz! X3.3

© 2001-2017 Comsenz Inc.

快速回复 返回顶部 返回列表