哇哈体育

 找回密码
 注册

QQ登录

只需一步,快速开始

搜索
查看: 348|回复: 0

[排球] 2004年雅典奥运会女排决赛 中国 vs 俄罗斯 [576P/俄语/mpg/4.06G][BT下载]

[复制链接]

1864

主题

5096

帖子

1万

积分

半年VIP

Rank: 30Rank: 30

积分
11924
哇币
209912
部落号角
1323

版主专属特殊贡献宣传达人查水使者哇哈富翁

发表于 2018-10-4 16:58 | 显示全部楼层 |阅读模式
mmexport1538643060695.jpg
mmexport1538643066277.jpg
mmexport1538643073516.jpg





General
Complete name                  : F:\@Olympics_2004_Voleyball_Women_Final_Russia-China.mpg
Format                         : MPEG-PS
File size                      : 4.06 GiB
Duration                       : 2 h 20 min
Overall bit rate mode          : Variable
Overall bit rate               : 4 131 kb/s

Video
ID                             : 224 (0xE0)
Format                         : MPEG Video
Format version                 : Version 2
Format profile                 : Main@Main
Format settings                : CustomMatrix / BVOP
Format settings, BVOP          : Yes
Format settings, Matrix        : Custom
Format settings, GOP           : M=3, N=24
Format settings, picture struc : Frame
Duration                       : 2 h 20 min
Bit rate mode                  : Variable
Bit rate                       : 3 857 kb/s
Maximum bit rate               : 15.0 Mb/s
Width                          : 704 pixels
Height                         : 576 pixels
Display aspect ratio           : 4:3
Frame rate                     : 25.000 FPS
Standard                       : PAL
Color space                    : YUV
Chroma subsampling             : 4:2:0
Bit depth                      : 8 bits
Scan type                      : Interlaced
Scan order                     : Top Field First
Compression mode               : Lossy
Bits/(Pixel*Frame)             : 0.380
Time code of first frame       : 00:00:00:00
Time code source               : Group of pictures header
GOP, Open/Closed               : Open
GOP, Open/Closed of first fram : Closed
Stream size                    : 3.79 GiB (93%)

Audio
ID                             : 192 (0xC0)
Format                         : MPEG Audio
Format version                 : Version 1
Format profile                 : Layer 2
Duration                       : 2 h 20 min
Bit rate mode                  : Constant
Bit rate                       : 192 kb/s
Channel(s)                     : 2 channels
Sampling rate                  : 48.0 kHz
Frame rate                     : 41.667 FPS (1152 SPF)
Compression mode               : Lossy
Stream size                    : 193 MiB (5%)



购买主题 已有 29 人购买  本主题需向作者支付 10 哇币 才能浏览
*滑动验证:
您需要登录后才可以回帖 登录 | 注册

本版积分规则

Archiver|手机版|小黑屋|广告合作|哇哈体育

GMT+8, 2019-12-5 23:55

Powered by Discuz! X3.4

© 2001-2017 Comsenz Inc.

快速回复 返回顶部 返回列表