哇哈体育

 找回密码
 注册

QQ登录

只需一步,快速开始

搜索
查看: 150|回复: 0

[世界女排联赛] 20180607 国家女排联赛第四周 鹿特丹站 意大利VS多米尼加【720P 2.7G 现场原声 百度】

[复制链接]

1247

主题

1612

帖子

5120

积分

版主

Rank: 70Rank: 70Rank: 70Rank: 70Rank: 70Rank: 70

积分
5120
哇币
180729
部落号角
1251
发表于 2018-6-8 16:51 | 显示全部楼层 |阅读模式
视频信息
General
Complete name                  : D:\20180607 国家女排联赛第四周 鹿特丹站 意大利VS多米尼加【720P 2.7G 现场原声 百度】.mp4
Format                         : MPEG-4
Format profile                 : Base Media
Codec ID                       : isom
File size                      : 2.72 GiB
Duration                       : 2h 4mn
Overall bit rate mode          : Constant
Overall bit rate               : 3 121 Kbps
Writing application            : Lavf57.48.101

Video
ID                             : 1
Format                         : AVC
Format/Info                    : Advanced Video Codec
Format profile                 : Main@L3.1
Format settings, CABAC         : Yes
Format settings, ReFrames      : 2 frames
Format settings, GOP           : M=1, N=25
Codec ID                       : avc1
Codec ID/Info                  : Advanced Video Coding
Duration                       : 2h 4mn
Bit rate mode                  : Constant
Bit rate                       : 3 000 Kbps
Width                          : 1 280 pixels
Height                         : 720 pixels
Display aspect ratio           : 16:9
Frame rate mode                : Constant
Frame rate                     : 25.000 fps
Color space                    : YUV
Chroma subsampling             : 4:2:0
Bit depth                      : 8 bits
Scan type                      : Progressive
Bits/(Pixel*Frame)             : 0.130
Stream size                    : 2.62 GiB (96%)

Audio
ID                             : 2
Format                         : AAC
Format/Info                    : Advanced Audio Codec
Format profile                 : LC
Codec ID                       : 40
Duration                       : 2h 4mn
Duration_LastFrame             : 9ms
Bit rate mode                  : Constant
Bit rate                       : 117 Kbps
Channel(s)                     : 2 channels
Channel positions              : Front: L R
Sampling rate                  : 44.1 KHz
Compression mode               : Lossy
Stream size                    : 104 MiB (4%)


截图
20180607 国家女排联赛第四周 鹿特丹站 意大利VS多米尼加【720P 2.7G 现场原声 百度】.jpg 20180607 国家女排联赛第四周 鹿特丹站 意大利VS多米尼加【720P 2.7G 现场原声 百度】.jpg 20180607 国家女排联赛第四周 鹿特丹站 意大利VS多米尼加【720P 2.7G 现场原声 百度】.jpg
下载
购买主题 已有 7 人购买  本主题需向作者支付 20 哇币 才能浏览
社区质量人人有责,请勿灌水和重复回帖,否则将会受到处罚。
*滑动验证:
您需要登录后才可以回帖 登录 | 注册

本版积分规则

×本站发帖友情提示
1、注册用户在本社区发表、转载的任何作品仅代表其个人观点,不代表本社区认同其观点。
2、如果存在违反国家相关法律、法规、条例的行为,我们有权在不经作者准许的情况下删除其在本论坛所发表的文章。
3、所有网友不要盗用有明确版权要求的作品,转贴请注明来源,否则文责自负。
4、本社区保护注册用户个人资料,但是在自身原因导致个人资料泄露、丢失、被盗或篡改,本论坛概不负责,也不承担相应法律责任。

Archiver|手机版|小黑屋|广告合作|哇哈体育  

GMT+8, 2019-4-25 07:00

Powered by Discuz! X3.3

© 2001-2017 Comsenz Inc.

快速回复 返回顶部 返回列表