哇哈体育

 找回密码
 注册

QQ登录

只需一步,快速开始

搜索
查看: 580|回复: 0

[女排俱乐部联赛] 2018欧冠女排半决赛vakifbank-Conegliano【720P 2.4G 英语】

[复制链接]

6

主题

120

帖子

251

积分

Lv.9

Rank: 9Rank: 9Rank: 9Rank: 9Rank: 9

积分
251
哇币
3180
部落号角
0
发表于 2018-5-6 12:06 | 显示全部楼层 |阅读模式
General
Complete name                  :Imoco Volley Conegliano - VakifBank ISTANBUL.mp4
Format                         : MPEG-4
Format profile                 : Base Media
Codec ID                       : isom (isom/iso2/avc1/mp41)
File size                      : 2.38 GiB
Duration                       : 2 h 40 min
Overall bit rate mode          : Constant
Overall bit rate               : 2 131 kb/s
Writing application            : Lavf56.30.100

Video
ID                             : 1
Format                         : AVC
Format/Info                    : Advanced Video Codec
Format profile                 : Main@L3.1
Format settings                : CABAC / 2 Ref Frames
Format settings, CABAC         : Yes
Format settings, ReFrames      : 2 frames
Codec ID                       : avc1
Codec ID/Info                  : Advanced Video Coding
Duration                       : 2 h 40 min
Bit rate mode                  : Constant
Bit rate                       : 2 000 kb/s / 2 000 kb/s
Width                          : 1 280 pixels
Height                         : 720 pixels
Display aspect ratio           : 16:9
Frame rate mode                : Constant
Frame rate                     : 25.000 FPS
Color space                    : YUV
Chroma subsampling             : 4:2:0
Bit depth                      : 8 bits
Scan type                      : Progressive
Bits/(Pixel*Frame)             : 0.087
Stream size                    : 2.24 GiB (94%)
Writing library                : x264 core 152

Audio
ID                             : 2
Format                         : AAC
Format/Info                    : Advanced Audio Codec
Format profile                 : LC
Codec ID                       : mp4a-40-2
Duration                       : 2 h 40 min
Bit rate mode                  : Constant
Bit rate                       : 125 kb/s
Channel(s)                     : 2 channels
Channel positions              : Front: L R
Sampling rate                  : 48.0 kHz
Frame rate                     : 46.875 FPS (1024 SPF)
Compression mode               : Lossy
Stream size                    : 143 MiB (6%)
Default                        : Yes
Alternate group                : 1



Imoco Volley Conegliano - VakifBank ISTANBUL.mp4_20180506_115323.206.jpg

Imoco Volley Conegliano - VakifBank ISTANBUL.mp4_20180506_115348.656.jpg

Imoco Volley Conegliano - VakifBank ISTANBUL.mp4_20180506_115400.921.jpg

Imoco Volley Conegliano - VakifBank ISTANBUL.mp4_20180506_115427.808.jpg

Imoco Volley Conegliano - VakifBank ISTANBUL.mp4_20180506_115443.576.jpg



百度:链接:https://pan.baidu.com/s/1vW2J-LkM0ei9m9tc3lVCMQ


购买主题 已有 103 人购买  本主题需向作者支付 6 哇币 才能浏览
社区质量人人有责,请勿灌水和重复回帖,否则将会受到处罚。
*滑动验证:
您需要登录后才可以回帖 登录 | 注册

本版积分规则

Archiver|手机版|小黑屋|广告合作|哇哈体育

GMT+8, 2019-6-17 20:24

Powered by Discuz! X3.4

© 2001-2017 Comsenz Inc.

快速回复 返回顶部 返回列表