哇哈体育

 找回密码
 注册

QQ登录

只需一步,快速开始

搜索
查看: 4875|回复: 81

[女排俱乐部洲际赛] 土耳其女排四强赛vakifbank对Galatasaray第二轮 【720P 2.4G 土语】

[复制链接]

6

主题

120

帖子

251

积分

Lv.9

Rank: 9Rank: 9Rank: 9Rank: 9Rank: 9

积分
251
哇币
3188
部落号角
0
发表于 2018-3-28 10:05 | 显示全部楼层 |阅读模式
视频信息:
General
Complete name                  : SF-R2-Vakifbank-vs-Galatasaray-27-03-18-Turkish-Women-s-Volleyball-VSS-2017-2018.mp4
Format                         : MPEG-4
Format profile                 : Base Media / Version 2
Codec ID                       : mp42 (isom/mp42)
File size                      : 2.43 GiB
Duration                       : 2 h 41 min
Overall bit rate mode          : Variable
Overall bit rate               : 2 154 kb/s
Encoded date                   : UTC 2018-03-27 19:32:01
Tagged date                    : UTC 2018-03-27 19:32:01
gsst                           : 0
gstd                           : 9676126

Video
ID                             : 1
Format                         : AVC
Format/Info                    : Advanced Video Codec
Format profile                 : Main@L3.1
Format settings, CABAC         : Yes
Format settings, ReFrames      : 3 frames
Codec ID                       : avc1
Codec ID/Info                  : Advanced Video Coding
Duration                       : 2 h 41 min
Bit rate                       : 2 025 kb/s
Width                          : 1 280 pixels
Height                         : 720 pixels
Display aspect ratio           : 16:9
Frame rate mode                : Constant
Frame rate                     : 30.000 FPS
Color space                    : YUV
Chroma subsampling             : 4:2:0
Bit depth                      : 8 bits
Scan type                      : Progressive
Bits/(Pixel*Frame)             : 0.073
Stream size                    : 2.28 GiB (94%)
Title                          : ISO Media file produced by Google Inc. Created on: 03/27/2018.
Encoded date                   : UTC 2018-03-27 19:32:01
Tagged date                    : UTC 2018-03-27 19:32:01
Color range                    : Limited
Color primaries                : BT.709
Transfer characteristics       : BT.709
Matrix coefficients            : BT.709

Audio
ID                             : 2
Format                         : AAC
Format/Info                    : Advanced Audio Codec
Format profile                 : LC
Codec ID                       : 40
Duration                       : 2 h 41 min
Bit rate mode                  : Variable
Bit rate                       : 126 kb/s
Channel(s)                     : 2 channels
Channel positions              : Front: L R
Sampling rate                  : 44.1 kHz
Frame rate                     : 43.066 FPS (1024 spf)
Compression mode               : Lossy
Stream size                    : 145 MiB (6%)
Title                          : ISO Media file produced by Google Inc. Created on: 03/27/2018.
Encoded date                   : UTC 2018-03-27 19:32:01
Tagged date                    : UTC 2018-03-27 19:32:01

SF-R2-Vakifbank-vs-Galatasaray-27-03-18-Turkish-Women-s-Volleyball-VSS-2017-2018.jpg
SF-R2-Vakifbank-vs-Galatasaray-27-03-18-Turkish-Women-s-Volleyball-VSS-2017-2018.jpg
SF-R2-Vakifbank-vs-Galatasaray-27-03-18-Turkish-Women-s-Volleyball-VSS-2017-2018.jpg
SF-R2-Vakifbank-vs-Galatasaray-27-03-18-Turkish-Women-s-Volleyball-VSS-2017-2018.jpg
SF-R2-Vakifbank-vs-Galatasaray-27-03-18-Turkish-Women-s-Volleyball-VSS-2017-2018.jpg

链接:https://pan.baidu.com/s/18HDFyeE4hNHyzJRth7rlxg
购买主题 已有 70 人购买  本主题需向作者支付 5 哇币 才能浏览
社区质量人人有责,请勿灌水和重复回帖,否则将会受到处罚。

0

主题

73

帖子

122

积分

Lv.5

Rank: 5

积分
122
哇币
1183
部落号角
0
发表于 2018-3-29 20:29 | 显示全部楼层
如果不是第四局和第五局,朱婷的精彩solo,完全不打算收藏的。银行队表现的太失常,并且挑战太多导致比赛流畅性大打折扣。

不过感谢楼主的分享,幸苦了
社区质量人人有责,请勿灌水和重复回帖,否则将会受到处罚。
回复 支持 反对

使用道具 举报

33

主题

1280

帖子

1667

积分

Lv.27

Rank: 27Rank: 27Rank: 27

积分
1667
哇币
1800
部落号角
0
发表于 2018-3-28 11:56 | 显示全部楼层
谢谢                        
社区质量人人有责,请勿灌水和重复回帖,否则将会受到处罚。
回复 支持 反对

使用道具 举报

0

主题

29

帖子

33

积分

Lv.2

Rank: 2Rank: 2

积分
33
哇币
82
部落号角
0
发表于 2018-4-4 13:46 | 显示全部楼层
多谢分享,另一个有解说的版本已经下不了啦
社区质量人人有责,请勿灌水和重复回帖,否则将会受到处罚。
回复 支持 反对

使用道具 举报

2

主题

55

帖子

145

积分

Lv.5

Rank: 5

积分
145
哇币
10690
部落号角
0
发表于 2018-3-28 10:08 来自手机 | 显示全部楼层
楼主辛苦,谢谢分享。
社区质量人人有责,请勿灌水和重复回帖,否则将会受到处罚。
回复 支持 反对

使用道具 举报

2

主题

55

帖子

145

积分

Lv.5

Rank: 5

积分
145
哇币
10690
部落号角
0
发表于 2018-3-28 10:10 来自手机 | 显示全部楼层
楼主辛苦,谢谢分享。
社区质量人人有责,请勿灌水和重复回帖,否则将会受到处罚。
回复 支持 反对

使用道具 举报

0

主题

181

帖子

407

积分

包月VIP

Rank: 10Rank: 10

积分
407
哇币
23567
部落号角
0
发表于 2018-3-28 10:33 | 显示全部楼层
谢谢楼主分享!
社区质量人人有责,请勿灌水和重复回帖,否则将会受到处罚。
回复 支持 反对

使用道具 举报

0

主题

160

帖子

202

积分

Lv.7

Rank: 7Rank: 7Rank: 7

积分
202
哇币
5
部落号角
0
发表于 2018-3-28 10:42 | 显示全部楼层
谢谢!!!!!!
社区质量人人有责,请勿灌水和重复回帖,否则将会受到处罚。
回复 支持 反对

使用道具 举报

1

主题

43

帖子

215

积分

全年VIP

Rank: 40Rank: 40Rank: 40Rank: 40

积分
215
哇币
10142
部落号角
0
发表于 2018-3-28 10:48 | 显示全部楼层
谢谢,谢谢,希望再来一个没有解说的版本
社区质量人人有责,请勿灌水和重复回帖,否则将会受到处罚。
回复 支持 反对

使用道具 举报

0

主题

45

帖子

52

积分

Lv.2

Rank: 2Rank: 2

积分
52
哇币
35
部落号角
0
发表于 2018-3-28 10:58 | 显示全部楼层
谢谢楼主分享!
社区质量人人有责,请勿灌水和重复回帖,否则将会受到处罚。
回复 支持 反对

使用道具 举报

0

主题

8

帖子

10

积分

Lv.1

Rank: 1

积分
10
哇币
4
部落号角
0
发表于 2018-3-28 11:12 | 显示全部楼层
感谢分享!
社区质量人人有责,请勿灌水和重复回帖,否则将会受到处罚。
回复 支持 反对

使用道具 举报

1

主题

254

帖子

282

积分

Lv.10

Rank: 10Rank: 10

积分
282
哇币
601
部落号角
0
发表于 2018-3-28 11:13 | 显示全部楼层
楼主辛苦,谢谢分享
社区质量人人有责,请勿灌水和重复回帖,否则将会受到处罚。
回复 支持 反对

使用道具 举报

0

主题

16

帖子

21

积分

Lv.1

Rank: 1

积分
21
哇币
7
部落号角
0
发表于 2018-3-28 11:22 | 显示全部楼层
谢谢楼主分享
社区质量人人有责,请勿灌水和重复回帖,否则将会受到处罚。
回复 支持 反对

使用道具 举报

*滑动验证:
您需要登录后才可以回帖 登录 | 注册

本版积分规则

Archiver|手机版|小黑屋|广告合作|哇哈体育

GMT+8, 2019-9-23 11:48

Powered by Discuz! X3.4

© 2001-2017 Comsenz Inc.

快速回复 返回顶部 返回列表