哇哈体育

 找回密码
 注册

QQ登录

只需一步,快速开始

搜索
查看: 228|回复: 9

[女排俱乐部洲际赛] 土耳其女排四强赛vakifbank对Galatasaray第一轮 【720P 1.2G 土语】

[复制链接]

6

主题

120

帖子

251

积分

Lv.9

Rank: 9Rank: 9Rank: 9Rank: 9Rank: 9

积分
251
哇币
3188
部落号角
0
发表于 2018-3-19 14:55 | 显示全部楼层 |阅读模式
视频信息
General
Complete name                  : Galatasaray-vs-Vakifbank-Women-s-Turkey-Volleyball-league-2017-18-Leg-1-Semifinal.mp4
Format                         : MPEG-4
Format profile                 : Base Media / Version 2
Codec ID                       : mp42 (isom/mp42)
File size                      : 1.18 GiB
Duration                       : 1 h 38 min
Overall bit rate mode          : Variable
Overall bit rate               : 1 719 kb/s
Encoded date                   : UTC 2018-03-18 13:30:24
Tagged date                    : UTC 2018-03-18 13:30:24
gsst                           : 0
gstd                           : 5918116

Video
ID                             : 1
Format                         : AVC
Format/Info                    : Advanced Video Codec
Format profile                 : Main@L3.1
Format settings, CABAC         : Yes
Format settings, ReFrames      : 3 frames
Codec ID                       : avc1
Codec ID/Info                  : Advanced Video Coding
Duration                       : 1 h 38 min
Bit rate                       : 1 590 kb/s
Width                          : 1 278 pixels
Height                         : 720 pixels
Display aspect ratio           : 16:9
Frame rate mode                : Constant
Frame rate                     : 30.000 FPS
Color space                    : YUV
Chroma subsampling             : 4:2:0
Bit depth                      : 8 bits
Scan type                      : Progressive
Bits/(Pixel*Frame)             : 0.058
Stream size                    : 1.10 GiB (92%)
Title                          : ISO Media file produced by Google Inc. Created on: 03/18/2018.
Encoded date                   : UTC 2018-03-18 13:30:24
Tagged date                    : UTC 2018-03-18 13:30:24
Color range                    : Limited
Color primaries                : BT.709
Transfer characteristics       : BT.709
Matrix coefficients            : BT.709

Audio
ID                             : 2
Format                         : AAC
Format/Info                    : Advanced Audio Codec
Format profile                 : LC
Codec ID                       : 40
Duration                       : 1 h 38 min
Bit rate mode                  : Variable
Bit rate                       : 126 kb/s
Channel(s)                     : 2 channels
Channel positions              : Front: L R
Sampling rate                  : 44.1 kHz
Frame rate                     : 43.066 FPS (1024 spf)
Compression mode               : Lossy
Stream size                    : 88.6 MiB (7%)
Title                          : ISO Media file produced by Google Inc. Created on: 03/18/2018.
Encoded date                   : UTC 2018-03-18 13:30:24
Tagged date                    : UTC 2018-03-18 13:30:24
Galatasaray-vs-Vakifbank-Women-s-Turkey-Volleyball-league-2017-18-Leg-1-Semifina.jpg
Galatasaray-vs-Vakifbank-Women-s-Turkey-Volleyball-league-2017-18-Leg-1-Semifina.jpg
Galatasaray-vs-Vakifbank-Women-s-Turkey-Volleyball-league-2017-18-Leg-1-Semifina.jpg
Galatasaray-vs-Vakifbank-Women-s-Turkey-Volleyball-league-2017-18-Leg-1-Semifina.jpg

清晰度一般 链接:
购买主题 已有 11 人购买  本主题需向作者支付 5 哇币 才能浏览
社区质量人人有责,请勿灌水和重复回帖,否则将会受到处罚。

133

主题

4474

帖子

4861

积分

Lv.40

Rank: 40Rank: 40Rank: 40Rank: 40

积分
4861
哇币
11164
部落号角
38

宣传达人哇哈富翁

发表于 2018-3-19 17:22 | 显示全部楼层
感谢楼主的热心分享精彩好球比赛视频资源。多谢楼主的辛苦劳动。
社区质量人人有责,请勿灌水和重复回帖,否则将会受到处罚。
回复 支持 反对

使用道具 举报

0

主题

87

帖子

159

积分

Lv.6

Rank: 6Rank: 6

积分
159
哇币
1846
部落号角
0
发表于 2018-3-19 17:33 | 显示全部楼层
谢谢楼主分享!清晰度一般就不下了
社区质量人人有责,请勿灌水和重复回帖,否则将会受到处罚。
回复 支持 反对

使用道具 举报

0

主题

12

帖子

18

积分

Lv.1

Rank: 1

积分
18
哇币
371
部落号角
0
发表于 2018-3-19 18:19 | 显示全部楼层
kkkkkkkkkkkkkkkkkkkkkkkk
社区质量人人有责,请勿灌水和重复回帖,否则将会受到处罚。
回复 支持 反对

使用道具 举报

头像被屏蔽

0

主题

2万

帖子

2万

积分

禁止发言

积分
24954
哇币
25036
部落号角
0
发表于 2018-3-19 22:08 | 显示全部楼层
提示: 作者被禁止或删除 内容自动屏蔽
社区质量人人有责,请勿灌水和重复回帖,否则将会受到处罚。
回复 支持 反对

使用道具 举报

7

主题

3538

帖子

3723

积分

Lv.36

Rank: 36Rank: 36Rank: 36Rank: 36

积分
3723
哇币
10973
部落号角
0
发表于 2018-3-19 22:20 | 显示全部楼层
强强对话。
社区质量人人有责,请勿灌水和重复回帖,否则将会受到处罚。
回复 支持 反对

使用道具 举报

0

主题

142

帖子

185

积分

Lv.7

Rank: 7Rank: 7Rank: 7

积分
185
哇币
143
部落号角
0
发表于 2018-3-20 08:29 | 显示全部楼层
谢谢分享!
社区质量人人有责,请勿灌水和重复回帖,否则将会受到处罚。
回复 支持 反对

使用道具 举报

103

主题

613

帖子

744

积分

Lv.17

Rank: 17Rank: 17Rank: 17Rank: 17Rank: 17

积分
744
哇币
1414
部落号角
0
发表于 2018-3-27 09:23 | 显示全部楼层
感谢分享,看看朱婷吧
社区质量人人有责,请勿灌水和重复回帖,否则将会受到处罚。
回复 支持 反对

使用道具 举报

2

主题

54

帖子

65

积分

Lv.3

Rank: 3Rank: 3Rank: 3

积分
65
哇币
5
部落号角
0
发表于 2018-3-28 13:50 来自手机 | 显示全部楼层
回复了也没链接吗
社区质量人人有责,请勿灌水和重复回帖,否则将会受到处罚。
回复 支持 反对

使用道具 举报

1

主题

5621

帖子

5751

积分

Lv.42

Rank: 42Rank: 42Rank: 42Rank: 42Rank: 42Rank: 42

积分
5751
哇币
598
部落号角
0
发表于 2018-3-30 22:07 | 显示全部楼层
感谢楼主分享,楼主辛苦,谢谢
社区质量人人有责,请勿灌水和重复回帖,否则将会受到处罚。
回复 支持 反对

使用道具 举报

*滑动验证:
您需要登录后才可以回帖 登录 | 注册

本版积分规则

Archiver|手机版|小黑屋|广告合作|哇哈体育

GMT+8, 2019-6-25 20:51

Powered by Discuz! X3.4

© 2001-2017 Comsenz Inc.

快速回复 返回顶部 返回列表