哇哈体育

 找回密码
 注册

QQ登录

只需一步,快速开始

搜索
查看: 742|回复: 18

[西甲] 失效 2017年12月23日 西甲第17轮 皇马 vs 巴萨 1080i 国俄现5音轨 8.81G

 关闭 [复制链接]

40

主题

1519

帖子

1607

积分

Lv.27

Rank: 27Rank: 27Rank: 27

积分
1607
哇币
3713
部落号角
0
发表于 2018-3-14 20:16 | 显示全部楼层 |阅读模式
2017.12.23 西甲第17轮 皇马 vs 巴萨 1 HD - 1080i - 国俄粤现 8.81G MKVPPTV 国语(詹俊 张路)
PPTV 国语(娄一晨 刘越)

stadium 现场声

Format                         : Matroska
Format version                 : Version 4 / Version 2
File size                      : 4.55 GiB
Duration                       : 49 min
Overall bit rate               : 13.0 Mb/s
Encoded date                   : UTC 2018-01-28 10:55:53
Writing application            : mkvmerge v8.5.1 ('Where you lead I will follow') 64bit
Writing library                : libebml v1.3.3 + libmatroska v1.4.4

Video
ID                             : 1
Format                         : AVC
Format/Info                    : Advanced Video Codec
Format profile                 : High@L4
Format settings, CABAC         : Yes
Format settings, ReFrames      : 4 frames
Format settings, GOP           : M=4, N=28
Codec ID                       : V_MPEG4/ISO/AVC
Duration                       : 49 min
Bit rate                       : 12.3 Mb/s
Width                          : 1 920 pixels
Height                         : 1 080 pixels
Display aspect ratio           : 16:9
Frame rate mode                : Variable
Frame rate                     : 50.000 FPS
Original frame rate            : 25.000 FPS
Standard                       : Component
Color space                    : YUV
Chroma subsampling             : 4:2:0
Bit depth                      : 8 bits
Scan type                      : Interlaced
Scan type, store method        : Separated fields
Scan order                     : Top Field First
Bits/(Pixel*Frame)             : 0.119
Stream size                    : 4.29 GiB (94%)
Default                        : Yes
Forced                         : No
Color range                    : Limited
Color primaries                : BT.709
Transfer characteristics       : BT.709
Matrix coefficients            : BT.709


Audio #2
ID                             : 3
Format                         : AAC
Format/Info                    : Advanced Audio Codec
Format profile                 : HE-AAC / LC
Codec ID                       : A_AAC
Duration                       : 49 min
Bit rate                       : 62.8 kb/s
Channel(s)                     : 2 channels
Channel positions              : Front: L R
Sampling rate                  : 44.1 kHz / 22.05 kHz
Frame rate                     : 21.533 FPS (1024 spf)
Compression mode               : Lossy
Delay relative to video        : 134 ms
Stream size                    : 22.4 MiB (0%)
Title                          : PPTV 国语(詹俊 张路)
Language                       : Chinese
Default                        : Yes
Forced                         : No

Audio #3
ID                             : 4
Format                         : AAC
Format/Info                    : Advanced Audio Codec
Format profile                 : HE-AAC / LC
Codec ID                       : A_AAC
Duration                       : 49 min
Bit rate                       : 62.8 kb/s
Channel(s)                     : 2 channels
Channel positions              : Front: L R
Sampling rate                  : 44.1 kHz / 22.05 kHz
Frame rate                     : 21.533 FPS (1024 spf)
Compression mode               : Lossy
Delay relative to video        : 8 s 124 ms
Stream size                    : 22.4 MiB (0%)
Title                          : PPTV 国语(娄一晨 刘越)
Language                       : Chinese
Default                        : No
Forced                         : No

Audio #4
ID                             : 5
Format                         : AAC
Format/Info                    : Advanced Audio Codec
Format profile                 : HE-AAC / LC
Codec ID                       : A_AAC
Duration                       : 49 min
Bit rate                       : 62.8 kb/s
Channel(s)                     : 1 channel
Channel positions              : Front: C
Sampling rate                  : 44.1 kHz / 22.05 kHz
Frame rate                     : 21.533 FPS (1024 spf)
Compression mode               : Lossy
Delay relative to video        : 8 s 155 ms
Stream size                    : 22.4 MiB (0%)
Title                          : stadium 现场声
Language                       : Chinese
Default                        : No
Forced                         : No

Audio #5
ID                             : 6
Format                         : AAC
Format/Info                    : Advanced Audio Codec
Format profile                 : LC
Codec ID                       : A_AAC
Duration                       : 49 min
Bit rate                       : 165 kb/s
Channel(s)                     : 2 channels
Channel positions              : Front: L R
Sampling rate                  : 48.0 kHz
Frame rate                     : 46.875 FPS (1024 spf)
Compression mode               : Lossy
Stream size                    : 58.1 MiB (1%)
Title                          : Now 粤语(陈晓明 叶鸿辉)
Language                       : Chinese
Default                        : No
Forced                         : No

购买主题 已有 7 人购买  本主题需向作者支付 12 哇币 才能浏览
积极参与短视频推广,可联系管理员免费兑换会员使用阅读权限~

306

主题

1万

帖子

1万

积分

超级版主

笑容甜死你

Rank: 75Rank: 75Rank: 75

积分
13925
哇币
222719
部落号角
910

哇哈帅哥贴图达人乐于助人宣传达人哇哈红人查水使者特殊贡献

发表于 2019-8-13 22:13 | 显示全部楼层
百度盤 失效
2019.8.13
回复 支持 反对

使用道具 举报

306

主题

1万

帖子

1万

积分

超级版主

笑容甜死你

Rank: 75Rank: 75Rank: 75

积分
13925
哇币
222719
部落号角
910

哇哈帅哥贴图达人乐于助人宣传达人哇哈红人查水使者特殊贡献

发表于 2019-8-13 22:14 | 显示全部楼层
hyh123 发表于 2019-8-13 21:49
非常感谢分享精彩比赛
好像失效了哎

下次遇到失效帖 還是建議使用右下角舉報按鈕
謝謝你了
回复 支持 反对

使用道具 举报

头像被屏蔽

2

主题

657

帖子

987

积分

禁止发言

积分
987
哇币
-237
部落号角
0
发表于 2019-8-13 16:45 | 显示全部楼层
提示: 作者被禁止或删除 内容自动屏蔽
积极参与短视频推广,可联系管理员免费兑换会员使用阅读权限~
回复 支持 反对

使用道具 举报

0

主题

19

帖子

49

积分

Lv.2

Rank: 2Rank: 2

积分
49
哇币
548
部落号角
0
发表于 2019-8-13 21:49 | 显示全部楼层
本帖最后由 hyh123 于 2019-8-13 21:51 编辑

非常感谢分享精彩比赛
好像失效了哎
积极参与短视频推广,可联系管理员免费兑换会员使用阅读权限~
回复 支持 反对

使用道具 举报

0

主题

1万

帖子

1万

积分

Lv.55

人生苦短。。。。足球是唯一!

Rank: 55Rank: 55Rank: 55

积分
14941
哇币
62001
部落号角
1
发表于 2018-3-14 21:52 | 显示全部楼层
支持下高清的西班牙国家德比赛事
积极参与短视频推广,可联系管理员免费兑换会员使用阅读权限~
回复 支持 反对

使用道具 举报

头像被屏蔽

0

主题

2万

帖子

2万

积分

禁止发言

积分
24951
哇币
25036
部落号角
0
发表于 2018-3-14 23:47 | 显示全部楼层
提示: 作者被禁止或删除 内容自动屏蔽
积极参与短视频推广,可联系管理员免费兑换会员使用阅读权限~
回复 支持 反对

使用道具 举报

0

主题

2801

帖子

2913

积分

Lv.34

Rank: 34Rank: 34Rank: 34Rank: 34Rank: 34Rank: 34

积分
2913
哇币
9584
部落号角
0
发表于 2018-3-15 09:50 | 显示全部楼层
感谢楼主热心分享
积极参与短视频推广,可联系管理员免费兑换会员使用阅读权限~
回复 支持 反对

使用道具 举报

14

主题

765

帖子

904

积分

Lv.19

Rank: 19Rank: 19Rank: 19Rank: 19Rank: 19Rank: 19Rank: 19

积分
904
哇币
1069
部落号角
20
发表于 2018-3-15 21:13 | 显示全部楼层
感谢楼主热心分享
积极参与短视频推广,可联系管理员免费兑换会员使用阅读权限~
回复 支持 反对

使用道具 举报

0

主题

113

帖子

166

积分

Lv.6

运动健将

Rank: 6Rank: 6

积分
166
哇币
22
部落号角
0
QQ
发表于 2018-3-15 22:41 | 显示全部楼层
真不错非常喜欢。
刘生刚
回复 支持 反对

使用道具 举报

0

主题

647

帖子

1014

积分

Lv.21

Rank: 21Rank: 21Rank: 21Rank: 21Rank: 21

积分
1014
哇币
35410
部落号角
0
发表于 2018-3-15 23:17 | 显示全部楼层
看看这个版本效果怎么样~~
积极参与短视频推广,可联系管理员免费兑换会员使用阅读权限~
回复 支持 反对

使用道具 举报

1

主题

5621

帖子

5772

积分

Lv.42

Rank: 42Rank: 42Rank: 42Rank: 42Rank: 42Rank: 42

积分
5772
哇币
1088
部落号角
0
发表于 2018-3-18 09:14 | 显示全部楼层
多谢楼主分享
积极参与短视频推广,可联系管理员免费兑换会员使用阅读权限~
回复 支持 反对

使用道具 举报

0

主题

36

帖子

59

积分

Lv.2

Rank: 2Rank: 2

积分
59
哇币
231
部落号角
0
发表于 2018-4-6 20:03 | 显示全部楼层
谢谢楼主的资源
积极参与短视频推广,可联系管理员免费兑换会员使用阅读权限~
回复 支持 反对

使用道具 举报

0

主题

306

帖子

675

积分

全年VIP

Rank: 40Rank: 40Rank: 40Rank: 40

积分
675
哇币
5445
部落号角
0
发表于 2018-4-7 09:39 | 显示全部楼层
谢谢分享!!!!!!!
积极参与短视频推广,可联系管理员免费兑换会员使用阅读权限~
回复 支持 反对

使用道具 举报

*滑动验证:
您需要登录后才可以回帖 登录 | 注册

本版积分规则

Archiver|手机版|小黑屋|广告合作|哇哈体育

GMT+8, 2020-2-22 14:51

Powered by Discuz! X3.4

© 2001-2017 Comsenz Inc.

快速回复 返回顶部 返回列表