哇哈体育

 找回密码
 注册

QQ登录

只需一步,快速开始

搜索
查看: 16780|回复: 293

[澳网] 2018年1月28日 澳网男单决赛 西里奇VS费德勒[CCTV5 HD/5.1 DTS/1080P][8.4G/含颁奖典礼][百度网盘]

  [复制链接]

1055

主题

1954

帖子

4073

积分

包月VIP

Rank: 10Rank: 10

积分
4073
哇币
166422
部落号角
324
发表于 2018-1-28 20:17 | 显示全部楼层 |阅读模式

马上注册,结交更多好友,享用更多功能,让你轻松玩转社区。

您需要 登录 才可以下载或查看,没有帐号?注册

x
本帖最后由 柳絮清影 于 2018-1-29 20:52 编辑

送给真正喜欢网球的球迷,很久不做录制了,心血来潮之作,希望哇友喜欢!

  1. General
  2. Unique ID                      : 152812231569935985558748546078421981360 (0x72F690B5339EC33013A09B7C1EF298B0)
  3. Complete name                  : F:\2018年澳大利亚网球公开赛男子单打决赛  西里奇VS费德勒.mkv
  4. Format                         : Matroska
  5. Format version                 : Version 4 / Version 2
  6. File size                      : 8.39 GiB
  7. Duration                       : 3 h 39 min
  8. Overall bit rate mode          : Constant
  9. Overall bit rate               : 5 480 kb/s
  10. Movie name                     : cctv5hd.m3u8
  11. Writing application            : Lavf58.3.100
  12. Writing library                : Lavf58.3.100
  13. ErrorDetectionType             : Per level 1

  14. Video
  15. ID                             : 1
  16. Format                         : AVC
  17. Format/Info                    : Advanced Video Codec
  18. Format profile                 : Baseline@L4
  19. Format settings                : 3 Ref Frames
  20. Format settings, CABAC         : No
  21. Format settings, ReFrames      : 3 frames
  22. Format settings, GOP           : M=1, N=25
  23. Codec ID                       : V_MPEG4/ISO/AVC
  24. Duration                       : 3 h 39 min
  25. Bit rate mode                  : Constant
  26. Bit rate                       : 4 000 kb/s
  27. Width                          : 1 920 pixels
  28. Height                         : 1 080 pixels
  29. Display aspect ratio           : 16:9
  30. Frame rate mode                : Constant
  31. Frame rate                     : 25.000 FPS
  32. Color space                    : YUV
  33. Chroma subsampling             : 4:2:0
  34. Bit depth                      : 8 bits
  35. Scan type                      : Progressive
  36. Bits/(Pixel*Frame)             : 0.077
  37. Stream size                    : 5.97 GiB (71%)
  38. Default                        : Yes
  39. Forced                         : No

  40. Audio
  41. ID                             : 2
  42. Format                         : DTS
  43. Format/Info                    : Digital Theater Systems
  44. Codec ID                       : A_DTS
  45. Duration                       : 3 h 39 min
  46. Bit rate mode                  : Constant
  47. Bit rate                       : 1 473 kb/s
  48. Channel(s)                     : 6 channels
  49. Channel positions              : Front: L C R, Side: L R, LFE
  50. Sampling rate                  : 48.0 kHz
  51. Frame rate                     : 93.750 FPS (512 SPF)
  52. Bit depth                      : 16 bits
  53. Compression mode               : Lossy
  54. Stream size                    : 2.26 GiB (27%)
  55. Default                        : Yes
  56. Forced                         : No
复制代码

cctv5hd.m3u8_20180128_162303.mkv_20180128_200341.977.jpg
cctv5hd.m3u8_20180128_162303.mkv_20180128_200407.721.jpg
cctv5hd.m3u8_20180128_162303.mkv_20180128_200437.274.jpg

百度云下载地址:

[hideAx]链接:https://pan.baidu.com/s/1o8Yx35K 密码:1b0w[/hide]
社区质量人人有责,请勿灌水和重复回帖,否则将会受到处罚。

0

主题

382

帖子

469

积分

Lv.13

Rank: 13Rank: 13Rank: 13Rank: 13Rank: 13

积分
469
哇币
209
部落号角
0
发表于 2018-1-28 20:32 | 显示全部楼层
thx for sharing
社区质量人人有责,请勿灌水和重复回帖,否则将会受到处罚。
回复 支持 1 反对 0

使用道具 举报

254

主题

1086

帖子

1910

积分

Lv.30

Rank: 30Rank: 30

积分
1910
哇币
42264
部落号角
21
发表于 2018-1-28 23:28 | 显示全部楼层
RFYHP 发表于 2018-1-28 21:30
“百度真坑,刚传完了,提醒线路坏了,又重新上传”,,,哈哈哈哈,不用着急不用着急

其实重新传也只是要回炉一部分,再点一遍上传还是比较快的
社区质量人人有责,请勿灌水和重复回帖,否则将会受到处罚。
回复 支持 反对

使用道具 举报

0

主题

3

帖子

3

积分

Lv.1

Rank: 1

积分
3
哇币
2
部落号角
0
发表于 2018-2-6 11:10 | 显示全部楼层
2018澳网决赛,费天王和西里奇打出了男子网坛的最高水准,童可欣和许旸也解说的精彩极了!
社区质量人人有责,请勿灌水和重复回帖,否则将会受到处罚。
回复 支持 反对

使用道具 举报

0

主题

324

帖子

795

积分

半年VIP

Rank: 30Rank: 30

积分
795
哇币
7441
部落号角
0
发表于 2018-1-28 20:20 | 显示全部楼层
谢谢楼主分享精彩比赛!
社区质量人人有责,请勿灌水和重复回帖,否则将会受到处罚。
回复 支持 反对

使用道具 举报

0

主题

145

帖子

236

积分

Lv.8

Rank: 8Rank: 8Rank: 8Rank: 8

积分
236
哇币
1726
部落号角
0
发表于 2018-1-28 20:20 | 显示全部楼层
20!!!感謝分享
社区质量人人有责,请勿灌水和重复回帖,否则将会受到处罚。
回复 支持 反对

使用道具 举报

0

主题

137

帖子

244

积分

Lv.9

Rank: 9Rank: 9Rank: 9Rank: 9Rank: 9

积分
244
哇币
2200
部落号角
0
发表于 2018-1-28 20:26 | 显示全部楼层
多谢楼主!激动!激动!
社区质量人人有责,请勿灌水和重复回帖,否则将会受到处罚。
回复 支持 反对

使用道具 举报

73

主题

799

帖子

1248

积分

Lv.23

Rank: 23Rank: 23Rank: 23Rank: 23Rank: 23Rank: 23Rank: 23

积分
1248
哇币
5652
部落号角
0
发表于 2018-1-28 20:27 | 显示全部楼层
视频是25帧还是50帧?
社区质量人人有责,请勿灌水和重复回帖,否则将会受到处罚。
回复 支持 反对

使用道具 举报

0

主题

2

帖子

3

积分

Lv.1

Rank: 1

积分
3
哇币
5
部落号角
0
发表于 2018-1-28 20:28 | 显示全部楼层
我费不容易
社区质量人人有责,请勿灌水和重复回帖,否则将会受到处罚。
回复 支持 反对

使用道具 举报

2

主题

849

帖子

1110

积分

半年VIP

Rank: 30Rank: 30

积分
1110
哇币
513
部落号角
0
发表于 2018-1-28 20:29 | 显示全部楼层
精彩实在太精彩刺激了
社区质量人人有责,请勿灌水和重复回帖,否则将会受到处罚。
回复 支持 反对

使用道具 举报

0

主题

530

帖子

644

积分

Lv.15

Rank: 15Rank: 15Rank: 15

积分
644
哇币
2987
部落号角
0
发表于 2018-1-28 20:29 | 显示全部楼层
费德勒是最伟大的男子运动员
社区质量人人有责,请勿灌水和重复回帖,否则将会受到处罚。
回复 支持 反对

使用道具 举报

0

主题

123

帖子

230

积分

Lv.8

Rank: 8Rank: 8Rank: 8Rank: 8

积分
230
哇币
406
部落号角
0
发表于 2018-1-28 20:31 | 显示全部楼层
谢谢楼主分享,楼主辛苦了,非常感谢
社区质量人人有责,请勿灌水和重复回帖,否则将会受到处罚。
回复 支持 反对

使用道具 举报

*滑动验证:
您需要登录后才可以回帖 登录 | 注册

本版积分规则

Archiver|手机版|小黑屋|广告合作|哇哈体育

GMT+8, 2019-8-18 14:46

Powered by Discuz! X3.4

© 2001-2017 Comsenz Inc.

快速回复 返回顶部 返回列表