哇哈体育

 找回密码
 注册

QQ登录

只需一步,快速开始

搜索
查看: 1561|回复: 32

[女排俱乐部洲际赛] 2018.1.20 土耳其女排联赛15轮VakifBank-Galatasaray【720P,1.7G,mp4,土语,百度云】

[复制链接]

6

主题

120

帖子

251

积分

Lv.9

Rank: 9Rank: 9Rank: 9Rank: 9Rank: 9

积分
251
哇币
3188
部落号角
0
发表于 2018-1-21 09:25 | 显示全部楼层 |阅读模式

VakifBank-vs-Galatasaray-017-18-Turkish-Women-s-Volleyball-League.mp4_20180121_0.jpg

VakifBank-vs-Galatasaray-017-18-Turkish-Women-s-Volleyball-League.mp4_20180121_0.jpg

VakifBank-vs-Galatasaray-017-18-Turkish-Women-s-Volleyball-League.mp4_20180121_0.jpg

General
Complete name            :VakifBank-vs-Galatasaray-017-18-Turkish-Women-s-Volleyball-League.mp4
Format                         : MPEG-4
Format profile                 : Base Media / Version 2
Codec ID                       : mp42 (isom/mp42)
File size                      : 1.67 GiB
Duration                       : 1 h 55 min
Overall bit rate mode          : Variable
Overall bit rate               : 2 070 kb/s
Encoded date                   : UTC 2018-01-20 16:57:46
Tagged date                    : UTC 2018-01-20 16:57:46
gsst                           : 0
gstd                           : 6947456

Video
ID                             : 1
Format                         : AVC
Format/Info                    : Advanced Video Codec
Format profile                 : Main@L3.1
Format settings, CABAC         : Yes
Format settings, ReFrames      : 3 frames
Codec ID                       : avc1
Codec ID/Info                  : Advanced Video Coding
Duration                       : 1 h 55 min
Bit rate                       : 1 940 kb/s
Width                          : 1 280 pixels
Height                         : 720 pixels
Display aspect ratio           : 16:9
Frame rate mode                : Constant
Frame rate                     : 30.000 FPS
Color space                    : YUV
Chroma subsampling             : 4:2:0
Bit depth                      : 8 bits
Scan type                      : Progressive
Bits/(Pixel*Frame)             : 0.070
Stream size                    : 1.57 GiB (94%)
Title                          : ISO Media file produced by Google Inc. Created on: 01/20/2018.
Encoded date                   : UTC 2018-01-20 16:57:46
Tagged date                    : UTC 2018-01-20 16:57:46
Color range                    : Limited
Color primaries                : BT.709
Transfer characteristics       : BT.709
Matrix coefficients            : BT.709

Audio
ID                             : 2
Format                         : AAC
Format/Info                    : Advanced Audio Codec
Format profile                 : LC
Codec ID                       : 40
Duration                       : 1 h 55 min
Bit rate mode                  : Variable
Bit rate                       : 126 kb/s
Channel(s)                     : 2 channels
Channel positions              : Front: L R
Sampling rate                  : 44.1 kHz
Frame rate                     : 43.066 FPS (1024 spf)
Compression mode               : Lossy
Stream size                    : 104 MiB (6%)
Title                          : ISO Media file produced by Google Inc. Created on: 01/20/2018.
Encoded date                   : UTC 2018-01-20 16:57:46
Tagged date                    : UTC 2018-01-20 16:57:46

百度云:链接: https://pan.baidu.com/s/1pNaDfOv 密码:
购买主题 已有 25 人购买  本主题需向作者支付 5 哇币 才能浏览
社区质量人人有责,请勿灌水和重复回帖,否则将会受到处罚。

6

主题

120

帖子

251

积分

Lv.9

Rank: 9Rank: 9Rank: 9Rank: 9Rank: 9

积分
251
哇币
3188
部落号角
0
 楼主| 发表于 2018-1-21 16:09 | 显示全部楼层
明月松间照w 发表于 2018-1-21 10:13
朱婷这场比赛自失较多,可能太累啦

不是累,几天前才打了不到1局球,怎么会累?普通人也不会这么没体力。
社区质量人人有责,请勿灌水和重复回帖,否则将会受到处罚。
回复 支持 反对

使用道具 举报

0

主题

306

帖子

518

积分

Lv.14

Rank: 14Rank: 14Rank: 14Rank: 14Rank: 14Rank: 14

积分
518
哇币
16467
部落号角
0
发表于 2018-1-21 12:34 | 显示全部楼层
应该是赢了吧      几比几赢得
社区质量人人有责,请勿灌水和重复回帖,否则将会受到处罚。
回复 支持 反对

使用道具 举报

0

主题

32

帖子

35

积分

Lv.2

Rank: 2Rank: 2

积分
35
哇币
51
部落号角
0
发表于 2018-1-21 23:19 | 显示全部楼层
谢谢楼主分享  飞机上就靠这场比赛了
社区质量人人有责,请勿灌水和重复回帖,否则将会受到处罚。
回复 支持 反对

使用道具 举报

3

主题

278

帖子

386

积分

Lv.12

Rank: 12Rank: 12Rank: 12Rank: 12

积分
386
哇币
10087
部落号角
1
发表于 2018-1-21 09:56 | 显示全部楼层
谢谢楼主分享精彩的比赛
社区质量人人有责,请勿灌水和重复回帖,否则将会受到处罚。
回复 支持 反对

使用道具 举报

0

主题

217

帖子

380

积分

Lv.12

Rank: 12Rank: 12Rank: 12Rank: 12

积分
380
哇币
12668
部落号角
0
发表于 2018-1-21 10:13 | 显示全部楼层
朱婷这场比赛自失较多,可能太累啦
社区质量人人有责,请勿灌水和重复回帖,否则将会受到处罚。
回复 支持 反对

使用道具 举报

33

主题

1280

帖子

1667

积分

Lv.27

Rank: 27Rank: 27Rank: 27

积分
1667
哇币
1800
部落号角
0
发表于 2018-1-21 10:16 | 显示全部楼层
谢谢      
社区质量人人有责,请勿灌水和重复回帖,否则将会受到处罚。
回复 支持 反对

使用道具 举报

0

主题

16

帖子

20

积分

Lv.1

Rank: 1

积分
20
哇币
25
部落号角
0
发表于 2018-1-21 10:34 | 显示全部楼层
感谢分享感谢分享感谢分享
社区质量人人有责,请勿灌水和重复回帖,否则将会受到处罚。
回复 支持 反对

使用道具 举报

0

主题

217

帖子

380

积分

Lv.12

Rank: 12Rank: 12Rank: 12Rank: 12

积分
380
哇币
12668
部落号角
0
发表于 2018-1-21 11:31 | 显示全部楼层
这场比赛打得很艰难
社区质量人人有责,请勿灌水和重复回帖,否则将会受到处罚。
回复 支持 反对

使用道具 举报

1

主题

293

帖子

403

积分

Lv.12

Rank: 12Rank: 12Rank: 12Rank: 12

积分
403
哇币
415
部落号角
0
发表于 2018-1-21 11:45 | 显示全部楼层
谢谢分享,楼主强大!
社区质量人人有责,请勿灌水和重复回帖,否则将会受到处罚。
回复 支持 反对

使用道具 举报

0

主题

103

帖子

169

积分

Lv.6

Rank: 6Rank: 6

积分
169
哇币
1658
部落号角
0
发表于 2018-1-21 12:18 | 显示全部楼层
谢谢楼主分享
社区质量人人有责,请勿灌水和重复回帖,否则将会受到处罚。
回复 支持 反对

使用道具 举报

0

主题

56

帖子

65

积分

Lv.3

Rank: 3Rank: 3Rank: 3

积分
65
哇币
101
部落号角
0
发表于 2018-1-21 12:35 | 显示全部楼层
谢谢楼主分享  飞机上就靠这场比赛了
社区质量人人有责,请勿灌水和重复回帖,否则将会受到处罚。
回复 支持 反对

使用道具 举报

*滑动验证:
您需要登录后才可以回帖 登录 | 注册

本版积分规则

Archiver|手机版|小黑屋|广告合作|哇哈体育

GMT+8, 2019-9-23 11:44

Powered by Discuz! X3.4

© 2001-2017 Comsenz Inc.

快速回复 返回顶部 返回列表