哇哈体育

 找回密码
 注册

QQ登录

只需一步,快速开始

搜索
查看: 1274|回复: 15

[篮球] 交换2012年2013年NBA季后赛几个精彩场次的1080i或高码率720P版本

[复制链接]

23

主题

5046

帖子

5634

积分

包月VIP

Rank: 10Rank: 10

积分
5634
哇币
3433
部落号角
0
发表于 2017-10-21 11:01 | 显示全部楼层 |阅读模式
1000哇币
本帖最后由 scorpioxudong 于 2017-10-24 15:04 编辑

2012年西区决赛,2012年总决赛,2013年NBA季后赛勇士掘金、西部半决赛勇士马刺,东区决赛步行者热火,总决赛热火马刺。
特别注明:只要HDSportBits发布过的原汁原味美版解说资源,其他的西班牙电视台意大利天空电视台的1080i不需要,谢谢

社区质量人人有责,请勿灌水和重复回帖,否则将会受到处罚。

513

主题

5362

帖子

7681

积分

管理员

【我欠快播一个会员】

Rank: 90Rank: 90Rank: 90Rank: 90Rank: 90Rank: 90

积分
7681
哇币
260166
部落号角
711

乐于助人特殊贡献哇哈富翁

QQ
发表于 2017-10-21 21:37 | 显示全部楼层
12和13年的总决赛我有。你的17总决赛哪几场的参数截图有吗?
【S哥的比赛目录】17-10-20.xls (2.58 MB, 下载次数: 116)
回复

使用道具 举报

23

主题

5046

帖子

5634

积分

包月VIP

Rank: 10Rank: 10

积分
5634
哇币
3433
部落号角
0
 楼主| 发表于 2017-10-21 23:29 | 显示全部楼层
突然硬了 发表于 2017-10-21 21:37
12和13年的总决赛我有。你的17总决赛哪几场的参数截图有吗?

General
ID                             : 8900 (0x22C4)
Complete name                  : G:\SNG\20170613 美职联总决赛G5 勇士vs骑士 SNG 1080i.[0].ts
Format                         : MPEG-TS
File size                      : 38.8 GiB
Duration                       : 4h 35mn
Overall bit rate mode          : Variable
Overall bit rate               : 20.1 Mbps

Video
ID                             : 512 (0x200)
Menu ID                        : 1 (0x1)
Format                         : AVC
Format/Info                    : Advanced Video Codec
Format profile                 : High@L4
Format settings, CABAC         : Yes
Format settings, ReFrames      : 3 frames
Codec ID                       : 27
Duration                       : 4h 35mn
Bit rate mode                  : Constant
Bit rate                       : 18.4 Mbps
Width                          : 1 920 pixels
Height                         : 1 080 pixels
Display aspect ratio           : 16:9
Frame rate                     : 25.000 fps
Color space                    : YUV
Chroma subsampling             : 4:2:0
Bit depth                      : 8 bits
Scan type                      : MBAFF
Scan type, store method        : Interleaved fields
Scan order                     : Top Field First
Bits/(Pixel*Frame)             : 0.356
Stream size                    : 34.9 GiB (90%)
Color range                    : Limited
Color primaries                : BT.709
Transfer characteristics       : BT.709
Matrix coefficients            : BT.709

Audio #1
ID                             : 4112 (0x1010)
Menu ID                        : 1 (0x1)
Format                         : MPEG Audio
Format version                 : Version 1
Format profile                 : Layer 2
Codec ID                       : 3
Duration                       : 4h 35mn
Bit rate mode                  : Constant
Bit rate                       : 256 Kbps
Channel(s)                     : 2 channels
Sampling rate                  : 48.0 KHz
Compression mode               : Lossy
Delay relative to video        : -184ms
Stream size                    : 505 MiB (1%)

Audio #2
ID                             : 4128 (0x1020)
Menu ID                        : 1 (0x1)
Format                         : MPEG Audio
Format version                 : Version 1
Format profile                 : Layer 2
Codec ID                       : 3
Duration                       : 4h 35mn
Bit rate mode                  : Constant
Bit rate                       : 256 Kbps
Channel(s)                     : 2 channels
Sampling rate                  : 48.0 KHz
Compression mode               : Lossy
Delay relative to video        : -184ms
Stream size                    : 505 MiB (1%)

Audio #3
ID                             : 4144 (0x1030)
Menu ID                        : 1 (0x1)
Format                         : MPEG Audio
Format version                 : Version 1
Format profile                 : Layer 2
Codec ID                       : 3
Duration                       : 4h 35mn
Bit rate mode                  : Constant
Bit rate                       : 256 Kbps
Channel(s)                     : 2 channels
Sampling rate                  : 48.0 KHz
Compression mode               : Lossy
Delay relative to video        : -184ms
Stream size                    : 505 MiB (1%)

Audio #4
ID                             : 4160 (0x1040)
Menu ID                        : 1 (0x1)
Format                         : MPEG Audio
Format version                 : Version 1
Format profile                 : Layer 2
Codec ID                       : 3
Duration                       : 4h 35mn
Bit rate mode                  : Constant
Bit rate                       : 256 Kbps
Channel(s)                     : 2 channels
Sampling rate                  : 48.0 KHz
Compression mode               : Lossy
Delay relative to video        : -184ms
Stream size                    : 505 MiB (1%)
社区质量人人有责,请勿灌水和重复回帖,否则将会受到处罚。
回复

使用道具 举报

23

主题

5046

帖子

5634

积分

包月VIP

Rank: 10Rank: 10

积分
5634
哇币
3433
部落号角
0
 楼主| 发表于 2017-10-21 23:42 | 显示全部楼层
突然硬了 发表于 2017-10-21 21:37
12和13年的总决赛我有。你的17总决赛哪几场的参数截图有吗?

社区质量人人有责,请勿灌水和重复回帖,否则将会受到处罚。
回复

使用道具 举报

513

主题

5362

帖子

7681

积分

管理员

【我欠快播一个会员】

Rank: 90Rank: 90Rank: 90Rank: 90Rank: 90Rank: 90

积分
7681
哇币
260166
部落号角
711

乐于助人特殊贡献哇哈富翁

QQ
发表于 2017-10-23 20:48 | 显示全部楼层
你加我QQ,详谈。378818183
社区质量人人有责,请勿灌水和重复回帖,否则将会受到处罚。
回复

使用道具 举报

23

主题

5046

帖子

5634

积分

包月VIP

Rank: 10Rank: 10

积分
5634
哇币
3433
部落号角
0
 楼主| 发表于 2017-10-23 21:10 | 显示全部楼层
突然硬了 发表于 2017-10-23 20:48
你加我QQ,详谈。378818183

看过你收录的表格,1213总决赛的版本不是我想要的版本
社区质量人人有责,请勿灌水和重复回帖,否则将会受到处罚。
回复

使用道具 举报

23

主题

5046

帖子

5634

积分

包月VIP

Rank: 10Rank: 10

积分
5634
哇币
3433
部落号角
0
 楼主| 发表于 2017-10-23 21:16 | 显示全部楼层
突然硬了 发表于 2017-10-23 20:48
你加我QQ,详谈。378818183

加你QQ了,以后有合适的资源交流交流,我收藏的17年总决赛版本是我花钱买的,所以不随便交换。
社区质量人人有责,请勿灌水和重复回帖,否则将会受到处罚。
回复

使用道具 举报

5

主题

317

帖子

521

积分

Lv.14

Rank: 14Rank: 14Rank: 14Rank: 14Rank: 14Rank: 14

积分
521
哇币
393
部落号角
0
发表于 2017-10-28 23:49 | 显示全部楼层
你Q多少,我有原版
社区质量人人有责,请勿灌水和重复回帖,否则将会受到处罚。
回复

使用道具 举报

5

主题

317

帖子

521

积分

Lv.14

Rank: 14Rank: 14Rank: 14Rank: 14Rank: 14Rank: 14

积分
521
哇币
393
部落号角
0
发表于 2017-10-28 23:51 | 显示全部楼层
你列表上的我看了下,不是真正的原版
社区质量人人有责,请勿灌水和重复回帖,否则将会受到处罚。
回复

使用道具 举报

23

主题

5046

帖子

5634

积分

包月VIP

Rank: 10Rank: 10

积分
5634
哇币
3433
部落号角
0
 楼主| 发表于 2017-10-29 20:02 | 显示全部楼层
天才的亮仔 发表于 2017-10-28 23:51
你列表上的我看了下,不是真正的原版

我没有原版
社区质量人人有责,请勿灌水和重复回帖,否则将会受到处罚。
回复

使用道具 举报

*滑动验证:
您需要登录后才可以回帖 登录 | 注册

本版积分规则

Archiver|手机版|小黑屋|广告合作|哇哈体育

GMT+8, 2019-6-16 21:58

Powered by Discuz! X3.4

© 2001-2017 Comsenz Inc.

快速回复 返回顶部 返回列表