哇哈体育

 找回密码
 注册

QQ登录

只需一步,快速开始

搜索
查看: 932|回复: 32

[女排洲际赛] 2017年9月9日 世界女排大冠军杯赛 中国VS俄罗斯[腾讯体育480P/595MB][沈静思解说][百度云盘][MP4]

[复制链接]

9

主题

177

帖子

331

积分

Lv.11

Rank: 11Rank: 11Rank: 11

积分
331
哇币
11525
部落号角
40
发表于 2017-9-9 17:20 | 显示全部楼层 |阅读模式

General
Complete name                  : 2017.09.09 WGCC_CHN-RUS[480p][腾讯体育][沈静思解说].mp4
Format                         : MPEG-4
Format profile                 : Base Media / Version 2
Codec ID                       : mp42 (isom/avc1/mp42)
File size                      : 596 MiB
Duration                       : 1 h 23 min
Overall bit rate mode          : Variable
Overall bit rate               : 1 000 kb/s
Encoded date                   : UTC 2017-09-09 06:59:35
Tagged date                    : UTC 2017-09-09 06:59:35

Video
ID                             : 1
Format                         : AVC
Format/Info                    : Advanced Video Codec
Format profile                 : High@L3
Format settings, CABAC         : Yes
Format settings, RefFrames     : 4 frames
Codec ID                       : avc1
Codec ID/Info                  : Advanced Video Coding
Duration                       : 1 h 23 min
Bit rate                       : 949 kb/s
Maximum bit rate               : 2 617 kb/s
Width                          : 848 pixels
Height                         : 480 pixels
Display aspect ratio           : 16:9
Frame rate mode                : Constant
Frame rate                     : 25.000 FPS
Color space                    : YUV
Chroma subsampling             : 4:2:0
Bit depth                      : 8 bits
Scan type                      : Progressive
Bits/(Pixel*Frame)             : 0.093
Stream size                    : 565 MiB (95%)
Encoded date                   : UTC 2017-09-09 06:59:35
Tagged date                    : UTC 2017-09-09 06:59:42

Audio
ID                             : 2
Format                         : AAC
Format/Info                    : Advanced Audio Codec
Format profile                 : HE-AAC / LC
Codec ID                       : 40
Duration                       : 1 h 23 min
Bit rate mode                  : Variable
Bit rate                       : 48.0 kb/s
Maximum bit rate               : 53.6 kb/s
Channel(s)                     : 2 channels
Channel positions              : Front: L R
Sampling rate                  : 48.0 kHz / 24.0 kHz
Frame rate                     : 23.438 FPS (1024 SPF)
Compression mode               : Lossy
Stream size                    : 28.6 MiB (5%)
Encoded date                   : UTC 2017-09-09 06:37:53
Tagged date                    : UTC 2017-09-09 06:59:42
2017.09.09 WGCC_CHN-RUS[480p][腾讯体育][沈静思解说].mp4_20170909_171058.802.jpg

2017.09.09 WGCC_CHN-RUS[480p][腾讯体育][沈静思解说].mp4_20170909_171149.787.jpg

2017.09.09 WGCC_CHN-RUS[480p][腾讯体育][沈静思解说].mp4_20170909_171204.414.jpg

2017.09.09 WGCC_CHN-RUS[480p][腾讯体育][沈静思解说].mp4_20170909_171237.692.jpg

百度云盘下载:

购买主题 已有 23 人购买  本主题需向作者支付 5 哇币 才能浏览
社区质量人人有责,请勿灌水和重复回帖,否则将会受到处罚。

0

主题

96

帖子

102

积分

Lv.4

Rank: 4Rank: 4Rank: 4Rank: 4

积分
102
哇币
15
部落号角
0
发表于 2017-9-9 22:12 | 显示全部楼层
有朗导在,女排就是不一样!这场比赛,张常宁得分虽然不多,但发球防守非常棒,没有张宝的发球,决胜局不可能拿下的
社区质量人人有责,请勿灌水和重复回帖,否则将会受到处罚。
回复 支持 反对

使用道具 举报

0

主题

5

帖子

6

积分

Lv.1

Rank: 1

积分
6
哇币
15
部落号角
0
发表于 2017-9-11 16:46 | 显示全部楼层
张常宁得分虽然不多,但发球防守非常棒,没有张宝的发球
社区质量人人有责,请勿灌水和重复回帖,否则将会受到处罚。
回复 支持 反对

使用道具 举报

0

主题

28

帖子

29

积分

Lv.1

Rank: 1

积分
29
哇币
16
部落号角
0
发表于 2017-9-17 16:47 | 显示全部楼层
作品仅代表其个人观点,不代表本社区认同其观点。
社区质量人人有责,请勿灌水和重复回帖,否则将会受到处罚。
回复 支持 反对

使用道具 举报

0

主题

102

帖子

118

积分

Lv.4

Rank: 4Rank: 4Rank: 4Rank: 4

积分
118
哇币
462
部落号角
0
发表于 2017-9-9 17:28 | 显示全部楼层
看看另类版本,感谢分享
社区质量人人有责,请勿灌水和重复回帖,否则将会受到处罚。
回复 支持 反对

使用道具 举报

0

主题

59

帖子

72

积分

Lv.3

Rank: 3Rank: 3Rank: 3

积分
72
哇币
236
部落号角
0
发表于 2017-9-9 17:38 | 显示全部楼层
谢谢楼主,够快的
社区质量人人有责,请勿灌水和重复回帖,否则将会受到处罚。
回复 支持 反对

使用道具 举报

0

主题

31

帖子

37

积分

Lv.2

Rank: 2Rank: 2

积分
37
哇币
65
部落号角
0
发表于 2017-9-9 18:30 | 显示全部楼层
这速度 66的
社区质量人人有责,请勿灌水和重复回帖,否则将会受到处罚。
回复 支持 反对

使用道具 举报

601

主题

5997

帖子

8495

积分

版主

Rank: 70Rank: 70Rank: 70Rank: 70Rank: 70Rank: 70

积分
8495
哇币
261246
部落号角
701

特殊贡献哇哈富翁

发表于 2017-9-9 18:36 | 显示全部楼层
謝謝分享
需要音频
社区质量人人有责,请勿灌水和重复回帖,否则将会受到处罚。
回复 支持 反对

使用道具 举报

1

主题

146

帖子

189

积分

Lv.7

Rank: 7Rank: 7Rank: 7

积分
189
哇币
692
部落号角
0
发表于 2017-9-9 18:48 | 显示全部楼层
感谢楼主分享
社区质量人人有责,请勿灌水和重复回帖,否则将会受到处罚。
回复 支持 反对

使用道具 举报

0

主题

44

帖子

53

积分

Lv.2

Rank: 2Rank: 2

积分
53
哇币
116
部落号角
0
发表于 2017-9-9 19:01 | 显示全部楼层
感谢楼主的分享
社区质量人人有责,请勿灌水和重复回帖,否则将会受到处罚。
回复 支持 反对

使用道具 举报

0

主题

314

帖子

437

积分

Lv.12

Rank: 12Rank: 12Rank: 12Rank: 12

积分
437
哇币
1660
部落号角
0
发表于 2017-9-9 19:31 | 显示全部楼层
来听胖婶的解说。。感谢
社区质量人人有责,请勿灌水和重复回帖,否则将会受到处罚。
回复 支持 反对

使用道具 举报

0

主题

90

帖子

194

积分

Lv.7

Rank: 7Rank: 7Rank: 7

积分
194
哇币
4841
部落号角
0
发表于 2017-9-9 20:01 | 显示全部楼层
感谢楼主分享
社区质量人人有责,请勿灌水和重复回帖,否则将会受到处罚。
回复 支持 反对

使用道具 举报

*滑动验证:
您需要登录后才可以回帖 登录 | 注册

本版积分规则

×本站发帖友情提示
1、注册用户在本社区发表、转载的任何作品仅代表其个人观点,不代表本社区认同其观点。
2、如果存在违反国家相关法律、法规、条例的行为,我们有权在不经作者准许的情况下删除其在本论坛所发表的文章。
3、所有网友不要盗用有明确版权要求的作品,转贴请注明来源,否则文责自负。
4、本社区保护注册用户个人资料,但是在自身原因导致个人资料泄露、丢失、被盗或篡改,本论坛概不负责,也不承担相应法律责任。

Archiver|手机版|小黑屋|广告合作|哇哈体育 ( 沪ICP备11040679号 

GMT+8, 2017-11-22 12:02

Powered by Discuz! X3.3

© 2001-2017 Comsenz Inc.

快速回复 返回顶部 返回列表