哇哈体育

 找回密码
 注册

QQ登录

只需一步,快速开始

扫一扫,访问微社区

搜索
查看: 245|回复: 19

[美网] [美网] 2017.08.31 美网女单第二轮 段莹莹vs穆古拉扎 [腾讯体育][中文解说][720p/577M] 百度云

[复制链接]

12

主题

59

帖子

131

积分

Lv.5

Rank: 5

积分
131
哇币
1340
部落号角
36
发表于 2017-8-31 22:28 | 显示全部楼层 |阅读模式

马上注册,结交更多好友,享用更多功能,让你轻松玩转社区。

您需要 登录 才可以下载或查看,没有帐号?注册

x
本帖最后由 esv 于 2017-8-31 22:28 编辑

General
Complete name                  : 20170831.美网女单第2轮.段莹莹vs穆古拉扎.720p-腾讯体育.mp4
Format                         : MPEG-4
Format profile                 : Base Media
Codec ID                       : isom (isom/iso2/avc1/mp41)
File size                      : 577 MiB
Duration                       : 1 h 5 min
Overall bit rate               : 1 228 kb/s
Writing application            : Lavf54.35.100

Video
ID                             : 1
Format                         : AVC
Format/Info                    : Advanced Video Codec
Format profile                 : High@L3.1
Format settings, CABAC         : Yes
Format settings, ReFrames      : 4 frames
Codec ID                       : avc1
Codec ID/Info                  : Advanced Video Coding
Duration                       : 1 h 5 min
Bit rate                       : 1 159 kb/s
Width                          : 1 280 pixels
Height                         : 720 pixels
Display aspect ratio           : 16:9
Frame rate mode                : Constant
Frame rate                     : 25.000 FPS
Color space                    : YUV
Chroma subsampling             : 4:2:0
Bit depth                      : 8 bits
Scan type                      : Progressive
Bits/(Pixel*Frame)             : 0.050
Stream size                    : 545 MiB (94%)

Audio
ID                             : 2
Format                         : AAC
Format/Info                    : Advanced Audio Codec
Format profile                 : HE-AAC / LC
Codec ID                       : 40
Duration                       : 1 h 5 min
Bit rate mode                  : Constant
Bit rate                       : 64.0 kb/s
Channel(s)                     : 2 channels
Channel positions              : Front: L R
Sampling rate                  : 48.0 kHz / 24.0 kHz
Frame rate                     : 23.438 FPS (1024 spf)
Compression mode               : Lossy
Stream size                    : 30.1 MiB (5%)
Default                        : Yes
Alternate group                : 1

20170831.美网女单第2轮.段莹莹vs穆古拉扎.720p-腾讯体育.mp4.jpg


下载地址

游客,如果您要查看本帖隐藏内容请回复

评分

参与人数 1哇币 +20 收起 理由
yalocovic + 20 很给力!

查看全部评分

社区质量人人有责,请勿灌水和重复回帖,否则将会受到处罚。

0

主题

401

帖子

480

积分

Lv.13

Rank: 13Rank: 13Rank: 13Rank: 13Rank: 13

积分
480
哇币
1639
部落号角
0
发表于 2017-8-31 23:35 | 显示全部楼层
曾几何时,中国(女)球员的梦想是能在美国的大球场打球(输赢不论)。
社区质量人人有责,请勿灌水和重复回帖,否则将会受到处罚。
回复 支持 反对

使用道具 举报

0

主题

175

帖子

193

积分

Lv.7

Rank: 7Rank: 7Rank: 7

积分
193
哇币
207
部落号角
0
发表于 2017-9-1 23:14 | 显示全部楼层
感谢楼主分享美网女单第2轮Duan-Muguruza腾讯体育版
社区质量人人有责,请勿灌水和重复回帖,否则将会受到处罚。
回复 支持 反对

使用道具 举报

0

主题

17

帖子

19

积分

Lv.1

Rank: 1

积分
19
哇币
7
部落号角
0
发表于 2017-8-31 22:54 | 显示全部楼层
楼主辛苦了  感谢资源
社区质量人人有责,请勿灌水和重复回帖,否则将会受到处罚。
回复 支持 反对

使用道具 举报

0

主题

1万

帖子

1万

积分

Lv.53

Rank: 53Rank: 53Rank: 53Rank: 53Rank: 53

积分
12389
哇币
14417
部落号角
0
发表于 2017-9-1 00:04 | 显示全部楼层
谢谢楼主分享
社区质量人人有责,请勿灌水和重复回帖,否则将会受到处罚。
回复 支持 反对

使用道具 举报

11

主题

952

帖子

1101

积分

Lv.22

Rank: 22Rank: 22Rank: 22Rank: 22Rank: 22Rank: 22

积分
1101
哇币
1400
部落号角
0
发表于 2017-9-1 01:02 | 显示全部楼层
这一场球还是很给力的
社区质量人人有责,请勿灌水和重复回帖,否则将会受到处罚。
回复 支持 反对

使用道具 举报

0

主题

1013

帖子

1134

积分

Lv.22

Rank: 22Rank: 22Rank: 22Rank: 22Rank: 22Rank: 22

积分
1134
哇币
3024
部落号角
0
发表于 2017-9-1 07:59 | 显示全部楼层
Thank you very much
社区质量人人有责,请勿灌水和重复回帖,否则将会受到处罚。
回复 支持 反对

使用道具 举报

1

主题

237

帖子

264

积分

Lv.9

Rank: 9Rank: 9Rank: 9Rank: 9Rank: 9

积分
264
哇币
2876
部落号角
0
发表于 2017-9-1 09:18 | 显示全部楼层
thanks for sharing
社区质量人人有责,请勿灌水和重复回帖,否则将会受到处罚。
回复 支持 反对

使用道具 举报

0

主题

2735

帖子

3014

积分

Lv.34

Rank: 34Rank: 34Rank: 34Rank: 34Rank: 34Rank: 34

积分
3014
哇币
4816
部落号角
0
发表于 2017-9-1 10:15 | 显示全部楼层
感谢楼主,谢谢分享精彩美网比赛
社区质量人人有责,请勿灌水和重复回帖,否则将会受到处罚。
回复 支持 反对

使用道具 举报

0

主题

136

帖子

140

积分

Lv.5

Rank: 5

积分
140
哇币
69
部落号角
0
发表于 2017-9-1 10:20 | 显示全部楼层
感谢分享!!可惜差距还是很大
社区质量人人有责,请勿灌水和重复回帖,否则将会受到处罚。
回复 支持 反对

使用道具 举报

2

主题

1214

帖子

1314

积分

Lv.24

Rank: 24Rank: 24Rank: 24Rank: 24Rank: 24Rank: 24Rank: 24Rank: 24

积分
1314
哇币
1014
部落号角
0
发表于 2017-9-1 11:28 | 显示全部楼层
毕竟冠军的实力
社区质量人人有责,请勿灌水和重复回帖,否则将会受到处罚。
回复 支持 反对

使用道具 举报

*滑动验证:
您需要登录后才可以回帖 登录 | 注册

本版积分规则

×本站发帖友情提示
1、注册用户在本社区发表、转载的任何作品仅代表其个人观点,不代表本社区认同其观点。
2、如果存在违反国家相关法律、法规、条例的行为,我们有权在不经作者准许的情况下删除其在本论坛所发表的文章。
3、所有网友不要盗用有明确版权要求的作品,转贴请注明来源,否则文责自负。
4、本社区保护注册用户个人资料,但是在自身原因导致个人资料泄露、丢失、被盗或篡改,本论坛概不负责,也不承担相应法律责任。

Archiver|手机版|小黑屋|广告合作|哇哈体育 ( 沪ICP备11040679号

JS of wanmeiff.com and vcpic.com Please keep this copyright information, respect of, thank you!JS of wanmeiff.com and vcpic.com Please keep this copyright information, respect of, thank you!

GMT+8, 2017-9-23 10:13

Powered by Discuz! X3.3

© 2001-2017 Comsenz Inc.

快速回复 返回顶部 返回列表