哇哈体育

 找回密码
 注册

QQ登录

只需一步,快速开始

搜索
查看: 6894|回复: 56

[温网] 2017.07.15 温网女单决赛 穆古拉扎vs大威 [腾讯体育][詹俊,胡力涛解说][1080p/3G]百度

[复制链接]

18

主题

84

帖子

169

积分

Lv.6

Rank: 6Rank: 6

积分
169
哇币
1784
部落号角
36
发表于 2017-7-15 23:27 | 显示全部楼层 |阅读模式

马上注册,结交更多好友,享用更多功能,让你轻松玩转社区。

您需要 登录 才可以下载或查看,没有帐号?注册

x
本帖最后由 呼风唤雨fiy 于 2017-7-16 18:14 编辑

2017温网女单决赛超清珍藏版,包含詹俊胡力涛赛前分析、过往成就精彩剪辑、大威童年剪影、完整正赛、赛后颁奖仪式以及腾讯官方HL

20170715.温网女单决赛.穆古拉扎vs大威.(詹俊,胡力涛解说).1080p-腾讯体育VIP.mp4.EYE.jpg

General
Complete name                  : 20170715.温网女单决赛.穆古拉扎vs大威.(詹俊,胡力涛解说).1080p-腾讯体育VIP.mp4
Format                         : MPEG-4
Format profile                 : Base Media
Codec ID                       : isom (isom/iso2/avc1/mp41)
File size                      : 3.02 GiB
Duration                       : 2 h 18 min
Overall bit rate mode          : Variable
Overall bit rate               : 3 124 kb/s
Writing application            : Lavf54.35.100

Video
ID                             : 1
Format                         : AVC
Format/Info                    : Advanced Video Codec
Format profile                 : High@L4.1
Format settings, CABAC         : Yes
Format settings, ReFrames      : 3 frames
Codec ID                       : avc1
Codec ID/Info                  : Advanced Video Coding
Duration                       : 2 h 18 min
Bit rate mode                  : Variable
Bit rate                       : 3 025 kb/s
Maximum bit rate               : 3 840 kb/s
Width                          : 1 920 pixels
Height                         : 1 080 pixels
Display aspect ratio           : 16:9
Frame rate mode                : Variable
Frame rate                     : 24.000 FPS
Minimum frame rate             : 0.110 FPS
Maximum frame rate             : 25.641 FPS
Original frame rate            : 25.000 FPS
Color space                    : YUV
Chroma subsampling             : 4:2:0
Bit depth                      : 8 bits
Scan type                      : Progressive
Bits/(Pixel*Frame)             : 0.061
Stream size                    : 2.93 GiB (97%)

Audio
ID                             : 2
Format                         : AAC
Format/Info                    : Advanced Audio Codec
Format profile                 : LC
Codec ID                       : 40
Duration                       : 2 h 18 min
Bit rate mode                  : Variable
Bit rate                       : 89.9 kb/s
Maximum bit rate               : 128 kb/s
Channel(s)                     : 2 channels
Channel positions              : Front: L R
Sampling rate                  : 44.1 kHz
Frame rate                     : 43.066 FPS (1024 spf)
Compression mode               : Lossy
Stream size                    : 89.0 MiB (3%)
Default                        : Yes
Alternate group                : 1

千呼万唤始出来。。。

链接:
游客,如果您要查看本帖隐藏内容请回复

评分

参与人数 2部落号角 +6 哇币 +100 收起 理由
呼风唤雨fiy + 1 + 50 感谢
yalocovic + 5 + 50 很给力! 感谢你上传不同版本的视频!~~

查看全部评分

社区质量人人有责,请勿灌水和重复回帖,否则将会受到处罚。

1038

主题

3731

帖子

9013

积分

版主

Rank: 70Rank: 70Rank: 70Rank: 70Rank: 70Rank: 70

积分
9013
哇币
163178
部落号角
1242

版主专属特殊贡献宣传达人查水使者

发表于 2017-7-16 00:12 | 显示全部楼层
全宝蓝 发表于 2017-7-15 23:45
支持俊哥解说!另外建议哇哈今后放弃录制垃圾殃视版本!

央视也是无语 女单决赛都开始了 还在播放新闻! 昨天温网男单第一场半决赛5+播到后面要播马拉松比赛居然转到CCTV5  而碰到新闻就要中断播放!~太可恶了
社区质量人人有责,请勿灌水和重复回帖,否则将会受到处罚。
回复 支持 反对

使用道具 举报

518

主题

3639

帖子

4970

积分

三年VIP

the Notorious

Rank: 50Rank: 50

积分
4970
哇币
4354
部落号角
225

哇哈红人

QQ
发表于 2017-7-16 09:49 | 显示全部楼层
yalocovic 发表于 2017-7-16 00:12
央视也是无语 女单决赛都开始了 还在播放新闻! 昨天温网男单第一场半决赛5+播到后面要播马拉 ...

殃视的转播逻辑不是智商正常的人可以理解……建议以后只要不是完整转播就果断放弃录制!有疼迅+FOX+欧体三个版本足矣……
回复 支持 反对

使用道具 举报

1038

主题

3731

帖子

9013

积分

版主

Rank: 70Rank: 70Rank: 70Rank: 70Rank: 70Rank: 70

积分
9013
哇币
163178
部落号角
1242

版主专属特殊贡献宣传达人查水使者

发表于 2017-7-15 23:34 | 显示全部楼层
不错不错!~加油!~~你的版本 和央视版本最快  现在就等fox版本 以及欧洲体育台版本
社区质量人人有责,请勿灌水和重复回帖,否则将会受到处罚。
回复 支持 反对

使用道具 举报

518

主题

3639

帖子

4970

积分

三年VIP

the Notorious

Rank: 50Rank: 50

积分
4970
哇币
4354
部落号角
225

哇哈红人

QQ
发表于 2017-7-15 23:45 | 显示全部楼层
支持俊哥解说!另外建议哇哈今后放弃录制垃圾殃视版本!
回复 支持 反对

使用道具 举报

0

主题

62

帖子

100

积分

Lv.4

Rank: 4Rank: 4Rank: 4Rank: 4

积分
100
哇币
291
部落号角
0
发表于 2017-7-15 23:55 | 显示全部楼层
谢谢分享。。。。
社区质量人人有责,请勿灌水和重复回帖,否则将会受到处罚。
回复 支持 反对

使用道具 举报

0

主题

16

帖子

18

积分

Lv.1

Rank: 1

积分
18
哇币
13
部落号角
0
发表于 2017-7-16 00:14 | 显示全部楼层
Thanks for share
社区质量人人有责,请勿灌水和重复回帖,否则将会受到处罚。
回复 支持 反对

使用道具 举报

0

主题

1万

帖子

1万

积分

Lv.57

Rank: 57Rank: 57Rank: 57Rank: 57Rank: 57

积分
16271
哇币
18254
部落号角
0
发表于 2017-7-16 00:51 | 显示全部楼层
谢谢楼主分享
社区质量人人有责,请勿灌水和重复回帖,否则将会受到处罚。
回复 支持 反对

使用道具 举报

0

主题

1237

帖子

1378

积分

Lv.24

Rank: 24Rank: 24Rank: 24Rank: 24Rank: 24Rank: 24Rank: 24Rank: 24

积分
1378
哇币
32
部落号角
0
发表于 2017-7-16 01:10 | 显示全部楼层
感谢楼主分享
社区质量人人有责,请勿灌水和重复回帖,否则将会受到处罚。
回复 支持 反对

使用道具 举报

0

主题

149

帖子

160

积分

Lv.6

Rank: 6Rank: 6

积分
160
哇币
-4
部落号角
0
发表于 2017-7-16 07:19 | 显示全部楼层
腾讯的版本其实清晰度还是很好的,很喜欢狐狸套
社区质量人人有责,请勿灌水和重复回帖,否则将会受到处罚。
回复 支持 反对

使用道具 举报

44

主题

1611

帖子

1888

积分

Lv.29

Rank: 29Rank: 29Rank: 29Rank: 29Rank: 29

积分
1888
哇币
2878
部落号角
5
QQ
发表于 2017-7-16 08:31 | 显示全部楼层
感谢楼主分享
社区质量人人有责,请勿灌水和重复回帖,否则将会受到处罚。
回复 支持 反对

使用道具 举报

*滑动验证:
您需要登录后才可以回帖 登录 | 注册

本版积分规则

×本站发帖友情提示
1、注册用户在本社区发表、转载的任何作品仅代表其个人观点,不代表本社区认同其观点。
2、如果存在违反国家相关法律、法规、条例的行为,我们有权在不经作者准许的情况下删除其在本论坛所发表的文章。
3、所有网友不要盗用有明确版权要求的作品,转贴请注明来源,否则文责自负。
4、本社区保护注册用户个人资料,但是在自身原因导致个人资料泄露、丢失、被盗或篡改,本论坛概不负责,也不承担相应法律责任。

Archiver|手机版|小黑屋|广告合作|哇哈体育 ( 沪ICP备11040679号 

GMT+8, 2017-11-23 00:48

Powered by Discuz! X3.3

© 2001-2017 Comsenz Inc.

快速回复 返回顶部 返回列表