哇哈体育

 找回密码
 注册

QQ登录

只需一步,快速开始

搜索
查看: 971|回复: 16

[温网] 2017.07.13 温网女单半决赛 大威vs孔塔 [腾讯体育][詹俊,胡力涛解说][1080p/1.9G]百度

[复制链接]

18

主题

84

帖子

169

积分

Lv.6

Rank: 6Rank: 6

积分
169
哇币
1784
部落号角
36
发表于 2017-7-14 19:01 | 显示全部楼层 |阅读模式

马上注册,结交更多好友,享用更多功能,让你轻松玩转社区。

您需要 登录 才可以下载或查看,没有帐号?注册

x
本帖最后由 呼风唤雨fiy 于 2017-7-15 09:00 编辑

General
Complete name                  : 20170713.温网女单半决赛.大威vs孔塔.(詹俊,胡力涛解说).1080p-腾讯体育VIP.mp4
Format                         : MPEG-4
Format profile                 : Base Media
Codec ID                       : isom (isom/iso2/avc1/mp41)
File size                      : 1.89 GiB
Duration                       : 1 h 23 min
Overall bit rate mode          : Variable
Overall bit rate               : 3 239 kb/s
Writing application            : Lavf54.35.100

Video
ID                             : 1
Format                         : AVC
Format/Info                    : Advanced Video Codec
Format profile                 : High@L4.1
Format settings, CABAC         : Yes
Format settings, ReFrames      : 3 frames
Codec ID                       : avc1
Codec ID/Info                  : Advanced Video Coding
Duration                       : 1 h 23 min
Bit rate mode                  : Variable
Bit rate                       : 3 138 kb/s
Maximum bit rate               : 3 840 kb/s
Width                          : 1 920 pixels
Height                         : 1 080 pixels
Display aspect ratio           : 16:9
Frame rate mode                : Variable
Frame rate                     : 25.000 FPS
Minimum frame rate             : 24.390 FPS
Maximum frame rate             : 25.641 FPS
Color space                    : YUV
Chroma subsampling             : 4:2:0
Bit depth                      : 8 bits
Scan type                      : Progressive
Bits/(Pixel*Frame)             : 0.061
Stream size                    : 1.83 GiB (97%)

Audio
ID                             : 2
Format                         : AAC
Format/Info                    : Advanced Audio Codec
Format profile                 : LC
Codec ID                       : 40
Duration                       : 1 h 23 min
Bit rate mode                  : Variable
Bit rate                       : 93.6 kb/s
Maximum bit rate               : 128 kb/s
Channel(s)                     : 2 channels
Channel positions              : Front: L R
Sampling rate                  : 44.1 kHz
Frame rate                     : 43.066 FPS (1024 spf)
Compression mode               : Lossy
Stream size                    : 55.9 MiB (3%)
Default                        : Yes
Alternate group                : 1


20170713.温网女单半决赛.大威vs孔塔.(詹俊,胡力涛解说).1080p-腾讯体育VIP.mp4.EYESO.jpg

链接:
游客,如果您要查看本帖隐藏内容请回复

评分

参与人数 2哇币 +100 收起 理由
呼风唤雨fiy + 50 很给力!
yalocovic + 50 赞一个!

查看全部评分

社区质量人人有责,请勿灌水和重复回帖,否则将会受到处罚。

18

主题

84

帖子

169

积分

Lv.6

Rank: 6Rank: 6

积分
169
哇币
1784
部落号角
36
 楼主| 发表于 2017-7-14 22:21 | 显示全部楼层
yalocovic 发表于 2017-7-14 21:33
今年温网女单半决赛都不好看 尤其是第一场

是的  所以蘑菇那场也不打算发了
社区质量人人有责,请勿灌水和重复回帖,否则将会受到处罚。
回复 支持 反对

使用道具 举报

0

主题

1115

帖子

1200

积分

Lv.23

Rank: 23Rank: 23Rank: 23Rank: 23Rank: 23Rank: 23Rank: 23

积分
1200
哇币
1958
部落号角
0
发表于 2017-7-16 01:20 | 显示全部楼层
Thank you for sharing 2017 Wimbledon V. Williams vs Konta Tencent version
社区质量人人有责,请勿灌水和重复回帖,否则将会受到处罚。
回复 支持 反对

使用道具 举报

11

主题

980

帖子

1132

积分

Lv.22

Rank: 22Rank: 22Rank: 22Rank: 22Rank: 22Rank: 22

积分
1132
哇币
1263
部落号角
0
发表于 2017-7-16 14:57 | 显示全部楼层
每一个版本  都是论坛工作人员的付出
社区质量人人有责,请勿灌水和重复回帖,否则将会受到处罚。
回复 支持 反对

使用道具 举报

1038

主题

3731

帖子

9013

积分

版主

Rank: 70Rank: 70Rank: 70Rank: 70Rank: 70Rank: 70

积分
9013
哇币
163178
部落号角
1242

版主专属特殊贡献宣传达人查水使者

发表于 2017-7-14 21:33 | 显示全部楼层
今年温网女单半决赛都不好看 尤其是第一场
社区质量人人有责,请勿灌水和重复回帖,否则将会受到处罚。
回复 支持 反对

使用道具 举报

0

主题

79

帖子

84

积分

Lv.3

Rank: 3Rank: 3Rank: 3

积分
84
哇币
170
部落号角
0
发表于 2017-7-15 00:16 | 显示全部楼层
精彩的一场半决赛
社区质量人人有责,请勿灌水和重复回帖,否则将会受到处罚。
回复 支持 反对

使用道具 举报

0

主题

2278

帖子

2416

积分

Lv.32

Rank: 32Rank: 32Rank: 32Rank: 32

积分
2416
哇币
792
部落号角
0
发表于 2017-7-15 07:16 | 显示全部楼层
thanks for sharing
社区质量人人有责,请勿灌水和重复回帖,否则将会受到处罚。
回复 支持 反对

使用道具 举报

0

主题

149

帖子

160

积分

Lv.6

Rank: 6Rank: 6

积分
160
哇币
-4
部落号角
0
发表于 2017-7-15 10:15 | 显示全部楼层
大威都37了还这么厉害
社区质量人人有责,请勿灌水和重复回帖,否则将会受到处罚。
回复 支持 反对

使用道具 举报

0

主题

1万

帖子

1万

积分

Lv.57

Rank: 57Rank: 57Rank: 57Rank: 57Rank: 57

积分
16271
哇币
18254
部落号角
0
发表于 2017-7-16 00:58 | 显示全部楼层
谢谢楼主分享
社区质量人人有责,请勿灌水和重复回帖,否则将会受到处罚。
回复 支持 反对

使用道具 举报

0

主题

374

帖子

392

积分

Lv.12

Rank: 12Rank: 12Rank: 12Rank: 12

积分
392
哇币
4
部落号角
0
发表于 2017-7-16 15:36 | 显示全部楼层
这是怎么录制的啊
社区质量人人有责,请勿灌水和重复回帖,否则将会受到处罚。
回复 支持 反对

使用道具 举报

*滑动验证:
您需要登录后才可以回帖 登录 | 注册

本版积分规则

×本站发帖友情提示
1、注册用户在本社区发表、转载的任何作品仅代表其个人观点,不代表本社区认同其观点。
2、如果存在违反国家相关法律、法规、条例的行为,我们有权在不经作者准许的情况下删除其在本论坛所发表的文章。
3、所有网友不要盗用有明确版权要求的作品,转贴请注明来源,否则文责自负。
4、本社区保护注册用户个人资料,但是在自身原因导致个人资料泄露、丢失、被盗或篡改,本论坛概不负责,也不承担相应法律责任。

Archiver|手机版|小黑屋|广告合作|哇哈体育 ( 沪ICP备11040679号 

GMT+8, 2017-11-23 00:50

Powered by Discuz! X3.3

© 2001-2017 Comsenz Inc.

快速回复 返回顶部 返回列表