哇哈体育

 找回密码
 注册

QQ登录

只需一步,快速开始

扫一扫,访问微社区

搜索
查看: 418|回复: 18

[女排联赛] 2017.1.10 女排联赛第十六轮 辽宁VS上海 四川VS北京

[复制链接]

358

主题

666

帖子

1986

积分

版主

Rank: 70Rank: 70Rank: 70Rank: 70Rank: 70Rank: 70

积分
1986
哇币
78424
部落号角
939
发表于 2017-1-11 23:18 | 显示全部楼层 |阅读模式
General
Complete name                  : D:\My Documents\Downloads\2017.1.10 四川VS北京.flv
Format                         : Flash Video
File size                      : 1.26 GiB
Duration                       : 1mn 5s
Overall bit rate               : 166 Mbps
_Server                        : Tengine
_displayWidth                  : 1280.000
_displayHeight                 : 720.000
_fps                           : 25.000
_via                           : cache8.cn396,liveproxy010183087154.eu13,livesource010183085188.eu13,livesource010183085188.eu13,liveproxy172029233156.eu13,cache1.cn553,cache1.cn553,cache7.cn553
_begints                       : 3479998.000
_alilive_streamid              : pub.mudu.tv/watch/tth1n6
_cdn_ip                        : 119.41.210.207

Video
Format                         : AVC
Format/Info                    : Advanced Video Codec
Format profile                 : High@L3.1
Format settings, CABAC         : Yes
Format settings, ReFrames      : 2 frames
Codec ID                       : 7
Duration                       : 1mn 5s
Bit rate                       : 1 464 Kbps
Width                          : 1 280 pixels
Height                         : 720 pixels
Display aspect ratio           : 16:9
Frame rate mode                : Constant
Frame rate                     : 25.000 fps
Color space                    : YUV
Chroma subsampling             : 4:2:0
Bit depth                      : 8 bits
Scan type                      : Progressive
Bits/(Pixel*Frame)             : 0.064
Stream size                    : 11.4 MiB (1%)

Audio
Format                         : AAC
Format/Info                    : Advanced Audio Codec
Format profile                 : LC
Codec ID                       : 10
Duration                       : 1mn 5s
Bit rate                       : 46.0 Kbps
Channel(s)                     : 2 channels
Channel positions              : Front: L R
Sampling rate                  : 44.1 KHz
Compression mode               : Lossy
Delay relative to video        : 6ms
Stream size                    : 365 KiB (0%)

截图
2017.1.10 辽宁VS上海.flv_20170111_231559.236.jpg


2017.1.10 四川VS北京.flv_20170111_231721.887.jpg





下载
购买主题 已有 47 人购买  本主题需向作者支付 5 哇币 才能浏览
社区质量人人有责,请勿灌水和重复回帖,否则将会受到处罚。

3

主题

420

帖子

515

积分

Lv.14

Rank: 14Rank: 14Rank: 14Rank: 14Rank: 14Rank: 14

积分
515
哇币
5258
部落号角
0
发表于 2017-1-11 23:36 | 显示全部楼层
感謝大大無私分享精彩球賽
社区质量人人有责,请勿灌水和重复回帖,否则将会受到处罚。
回复 支持 反对

使用道具 举报

0

主题

50

帖子

114

积分

Lv.4

Rank: 4Rank: 4Rank: 4Rank: 4

积分
114
哇币
2300
部落号角
0
发表于 2017-1-12 00:11 | 显示全部楼层
感谢楼主无私分享,差点以为四川这场没有机会下载到。
社区质量人人有责,请勿灌水和重复回帖,否则将会受到处罚。
回复 支持 反对

使用道具 举报

0

主题

156

帖子

213

积分

Lv.8

Rank: 8Rank: 8Rank: 8Rank: 8

积分
213
哇币
481
部落号角
0
发表于 2017-1-12 08:10 | 显示全部楼层
终于等到这两场比赛 灰常感谢楼主
社区质量人人有责,请勿灌水和重复回帖,否则将会受到处罚。
回复 支持 反对

使用道具 举报

0

主题

198

帖子

203

积分

Lv.7

Rank: 7Rank: 7Rank: 7

积分
203
哇币
-1
部落号角
0
发表于 2017-1-12 09:22 | 显示全部楼层
Thanks for sharing...
社区质量人人有责,请勿灌水和重复回帖,否则将会受到处罚。
回复 支持 反对

使用道具 举报

头像被屏蔽

1

主题

438

帖子

550

积分

禁止发言

积分
550
哇币
999
部落号角
0
发表于 2017-1-12 10:44 | 显示全部楼层
提示: 作者被禁止或删除 内容自动屏蔽
社区质量人人有责,请勿灌水和重复回帖,否则将会受到处罚。
回复 支持 反对

使用道具 举报

0

主题

121

帖子

198

积分

Lv.7

Rank: 7Rank: 7Rank: 7

积分
198
哇币
3323
部落号角
0
发表于 2017-1-12 16:09 | 显示全部楼层
感谢楼主录制并分享

深圳电视台的录像右下角有其他比赛的小屏幕,看着分心。能否请楼主放出同样来源的视频?
社区质量人人有责,请勿灌水和重复回帖,否则将会受到处罚。
回复 支持 反对

使用道具 举报

0

主题

71

帖子

106

积分

Lv.4

Rank: 4Rank: 4Rank: 4Rank: 4

积分
106
哇币
2080
部落号角
0
发表于 2017-1-12 18:46 | 显示全部楼层
感谢楼主分享
社区质量人人有责,请勿灌水和重复回帖,否则将会受到处罚。
回复 支持 反对

使用道具 举报

1

主题

126

帖子

136

积分

Lv.5

Rank: 5

积分
136
哇币
304
部落号角
0
发表于 2017-1-13 00:10 | 显示全部楼层
感谢楼主分享
社区质量人人有责,请勿灌水和重复回帖,否则将会受到处罚。
回复 支持 反对

使用道具 举报

0

主题

147

帖子

167

积分

Lv.6

Rank: 6Rank: 6

积分
167
哇币
429
部落号角
0
发表于 2017-1-13 01:30 | 显示全部楼层
谢谢楼主分享
社区质量人人有责,请勿灌水和重复回帖,否则将会受到处罚。
回复 支持 反对

使用道具 举报

*滑动验证:
您需要登录后才可以回帖 登录 | 注册

本版积分规则

×本站发帖友情提示
1、注册用户在本社区发表、转载的任何作品仅代表其个人观点,不代表本社区认同其观点。
2、如果存在违反国家相关法律、法规、条例的行为,我们有权在不经作者准许的情况下删除其在本论坛所发表的文章。
3、所有网友不要盗用有明确版权要求的作品,转贴请注明来源,否则文责自负。
4、本社区保护注册用户个人资料,但是在自身原因导致个人资料泄露、丢失、被盗或篡改,本论坛概不负责,也不承担相应法律责任。

Archiver|手机版|小黑屋|广告合作|哇哈体育 ( 沪ICP备11040679号

JS of wanmeiff.com and vcpic.com Please keep this copyright information, respect of, thank you!JS of wanmeiff.com and vcpic.com Please keep this copyright information, respect of, thank you!

GMT+8, 2017-8-21 18:16

Powered by Discuz! X3.3

© 2001-2017 Comsenz Inc.

快速回复 返回顶部 返回列表