哇哈体育

 找回密码
 注册

QQ登录

只需一步,快速开始

扫一扫,访问微社区

搜索
查看: 6049|回复: 115

[体育综艺] 2016.08.05 里约奥运会开幕式 [CCTV 5+ 国语][1080i/TS/17.72G][BD]

  [复制链接]

309

主题

492

帖子

1474

积分

Lv.25

Rank: 25

积分
1474
哇币
69917
部落号角
463
发表于 2016-8-7 11:28 | 显示全部楼层 |阅读模式
本帖最后由 ddstk 于 2016-8-7 11:44 编辑



请自行更改后缀为‘ts’

游客,如果您要查看本帖隐藏内容请回复



General
ID                                       : 27 (0x1B)
Complete name                            : 2016openC.ts
Format                                   : MPEG-TS
File size                                : 17.7 GiB
Duration                                 : 3h 58mn
Overall bit rate mode                    : Variable
Overall bit rate                         : 10.6 Mbps

Video
ID                                       : 257 (0x101)
Menu ID                                  : 1160 (0x488)
Format                                   : AVC
Format/Info                              : Advanced Video Codec
Format profile                           : Main@L4
Format settings, CABAC                   : Yes
Format settings, ReFrames                : 2 frames
Format settings, GOP                     : M=3, N=15
Codec ID                                 : 27
Duration                                 : 3h 58mn
Bit rate mode                            : Constant
Bit rate                                 : 10 000 Kbps
Maximum bit rate                         : 11.5 Mbps
Width                                    : 1 920 pixels
Height                                   : 1 080 pixels
Display aspect ratio                     : 16:9
Frame rate                               : 25.000 fps
Color space                              : YUV
Chroma subsampling                       : 4:2:0
Bit depth                                : 8 bits
Scan type                                : Interlaced
Scan type, store method                  : Separated fields
Scan order                               : Top Field First
Bits/(Pixel*Frame)                       : 0.193
Stream size                              : 16.4 GiB (93%)
Color range                              : Limited

Audio
ID                                       : 513 (0x201)
Menu ID                                  : 1160 (0x488)
Format                                   : MPEG Audio
Format version                           : Version 1
Format profile                           : Layer 2
Codec ID                                 : 3
Duration                                 : 3h 58mn
Bit rate mode                            : Constant
Bit rate                                 : 256 Kbps
Channel(s)                               : 2 channels
Sampling rate                            : 48.0 KHz
Compression mode                         : Lossy
Delay relative to video                  : -576ms
Stream size                              : 437 MiB (2%)

Menu
ID                                       : 769 (0x301)
Menu ID                                  : 1160 (0x488)
Duration                                 : 3h 58mn
List                                     : 257 (0x101) (AVC) / 513 (0x201) (MPEG Audio)
Maximum bit rate                         : 11948400

本帖子中包含更多资源

您需要 登录 才可以下载或查看,没有帐号?注册

x

评分

参与人数 1哇币 +50 收起 理由
magic_gems + 50 山寨

查看全部评分

有必要说明一下,标题里的BD是百度的简写,不是蓝光

206

主题

3364

帖子

3989

积分

Lv.37

Rank: 37Rank: 37Rank: 37Rank: 37Rank: 37

积分
3989
哇币
28726
部落号角
5
发表于 2016-8-7 11:46 | 显示全部楼层
這次的巴西奧運真是有夠他馬的爛,希望下次不要讓巴西舉辦了。
社区质量人人有责,请勿灌水和重复回帖,否则将会受到处罚。
回复 支持 1 反对 0

使用道具 举报

0

主题

6

帖子

7

积分

Lv.1

Rank: 1

积分
7
哇币
34
部落号角
0
发表于 2016-8-8 14:24 | 显示全部楼层
另外把楼主的CCTV5+的版本下载后发现右边有一丢丢的白框啊,。。有没有裁剪的方法或者别的,另外CCTV5+这个台是什么时候出现的。。我只知道CCTV5变成了CCTV奥运+

点评

有白边我就没办法了,信号就是这样。  发表于 2016-8-8 18:46
CCTV 5+是之前的CCTV-高清,改了好几年。  发表于 2016-8-8 18:44
社区质量人人有责,请勿灌水和重复回帖,否则将会受到处罚。
回复 支持 反对

使用道具 举报

0

主题

6

帖子

7

积分

Lv.1

Rank: 1

积分
7
哇币
34
部落号角
0
发表于 2016-8-7 23:26 | 显示全部楼层
目前这是全网国内版最清晰的版本了,唯一可惜台标是CCTV5+而不是CCTV奥运+了

点评

奥运台标的CCTV-5版本我也有,码率基本没差别就没发。  发表于 2016-8-8 00:23
社区质量人人有责,请勿灌水和重复回帖,否则将会受到处罚。
回复 支持 反对

使用道具 举报

2

主题

355

帖子

379

积分

Lv.12

Rank: 12Rank: 12Rank: 12Rank: 12

积分
379
哇币
278
部落号角
1
发表于 2016-8-7 12:00 | 显示全部楼层
明白了。。。TS谢谢
社区质量人人有责,请勿灌水和重复回帖,否则将会受到处罚。
回复 支持 反对

使用道具 举报

0

主题

8

帖子

9

积分

Lv.1

Rank: 1

积分
9
哇币
20
部落号角
0
发表于 2016-8-7 12:15 | 显示全部楼层
楼主辛苦!楼主大好人!
社区质量人人有责,请勿灌水和重复回帖,否则将会受到处罚。
回复 支持 反对

使用道具 举报

0

主题

70

帖子

101

积分

Lv.4

Rank: 4Rank: 4Rank: 4Rank: 4

积分
101
哇币
1318
部落号角
0
发表于 2016-8-7 12:16 | 显示全部楼层
全世界体育健儿欢聚里约,精彩奥运。
社区质量人人有责,请勿灌水和重复回帖,否则将会受到处罚。
回复 支持 反对

使用道具 举报

0

主题

1976

帖子

2174

积分

Lv.31

Rank: 31Rank: 31Rank: 31

积分
2174
哇币
284
部落号角
0
发表于 2016-8-7 12:33 | 显示全部楼层
可以的..........
社区质量人人有责,请勿灌水和重复回帖,否则将会受到处罚。
回复 支持 反对

使用道具 举报

0

主题

44

帖子

50

积分

Lv.2

Rank: 2Rank: 2

积分
50
哇币
48
部落号角
0
发表于 2016-8-7 12:37 | 显示全部楼层
TS的……17G好巨大……下下来看看能不能压小点
社区质量人人有责,请勿灌水和重复回帖,否则将会受到处罚。
回复 支持 反对

使用道具 举报

0

主题

263

帖子

305

积分

Lv.11

Rank: 11Rank: 11Rank: 11

积分
305
哇币
661
部落号角
0
发表于 2016-8-7 12:39 | 显示全部楼层
看了LZ的帖子,我只想说一句很好很强大!
社区质量人人有责,请勿灌水和重复回帖,否则将会受到处罚。
回复 支持 反对

使用道具 举报

21

主题

4922

帖子

5369

积分

Lv.41

Rank: 41Rank: 41Rank: 41Rank: 41Rank: 41

积分
5369
哇币
4451
部落号角
0
发表于 2016-8-7 12:41 | 显示全部楼层
啥也不说了,楼主就是给力!
社区质量人人有责,请勿灌水和重复回帖,否则将会受到处罚。
回复 支持 反对

使用道具 举报

0

主题

5640

帖子

6215

积分

Lv.43

Rank: 43Rank: 43Rank: 43Rank: 43Rank: 43Rank: 43Rank: 43

积分
6215
哇币
731
部落号角
5
发表于 2016-8-7 12:50 | 显示全部楼层
楼主,不论什么情况你一定要hold住!hold住就是胜利!
社区质量人人有责,请勿灌水和重复回帖,否则将会受到处罚。
回复 支持 反对

使用道具 举报

*滑动验证:
您需要登录后才可以回帖 登录 | 注册

本版积分规则

×本站发帖友情提示
1、注册用户在本社区发表、转载的任何作品仅代表其个人观点,不代表本社区认同其观点。
2、如果存在违反国家相关法律、法规、条例的行为,我们有权在不经作者准许的情况下删除其在本论坛所发表的文章。
3、所有网友不要盗用有明确版权要求的作品,转贴请注明来源,否则文责自负。
4、本社区保护注册用户个人资料,但是在自身原因导致个人资料泄露、丢失、被盗或篡改,本论坛概不负责,也不承担相应法律责任。

Archiver|手机版|小黑屋|广告合作|哇哈体育 ( 沪ICP备11040679号

JS of wanmeiff.com and vcpic.com Please keep this copyright information, respect of, thank you!JS of wanmeiff.com and vcpic.com Please keep this copyright information, respect of, thank you!

GMT+8, 2017-10-21 12:49

Powered by Discuz! X3.3

© 2001-2017 Comsenz Inc.

快速回复 返回顶部 返回列表