哇哈体育

 找回密码
 注册

QQ登录

只需一步,快速开始

搜索
查看: 16088|回复: 447

[女排三大赛] 2016.08.06 奥运会小组赛 中国vs.荷兰 [CCTV-5 国语][1080i/TS/9.26G][BD]

  [复制链接]

309

主题

492

帖子

1476

积分

Lv.25

Rank: 25

积分
1476
哇币
70085
部落号角
463
发表于 2016-8-7 01:42 | 显示全部楼层 |阅读模式

马上注册,结交更多好友,享用更多功能,让你轻松玩转社区。

您需要 登录 才可以下载或查看,没有帐号?注册

x
20160806-CHNvsNED.[0].ts_20160807_004235.154.jpg

自己改后缀成'ts'

游客,如果您要查看本帖隐藏内容请回复



General
ID                                       : 25 (0x19)
Complete name                            : 20160806-CHNvsNED.ts
Format                                   : MPEG-TS
File size                                : 9.26 GiB
Duration                                 : 2h 4mn
Overall bit rate mode                    : Variable
Overall bit rate                         : 10.7 Mbps

Video
ID                                       : 258 (0x102)
Menu ID                                  : 1197 (0x4AD)
Format                                   : AVC
Format/Info                              : Advanced Video Codec
Format profile                           : Main@L4
Format settings, CABAC                   : Yes
Format settings, ReFrames                : 2 frames
Format settings, GOP                     : M=3, N=15
Codec ID                                 : 27
Duration                                 : 2h 4mn
Bit rate mode                            : Constant
Bit rate                                 : 10 000 Kbps
Maximum bit rate                         : 11.5 Mbps
Width                                    : 1 920 pixels
Height                                   : 1 080 pixels
Display aspect ratio                     : 16:9
Frame rate                               : 25.000 fps
Color space                              : YUV
Chroma subsampling                       : 4:2:0
Bit depth                                : 8 bits
Scan type                                : Interlaced
Scan type, store method                  : Separated fields
Scan order                               : Top Field First
Bits/(Pixel*Frame)                       : 0.193
Stream size                              : 8.58 GiB (93%)
Color range                              : Limited

Audio
ID                                       : 514 (0x202)
Menu ID                                  : 1197 (0x4AD)
Format                                   : MPEG Audio
Format version                           : Version 1
Format profile                           : Layer 2
Codec ID                                 : 3
Duration                                 : 2h 4mn
Bit rate mode                            : Constant
Bit rate                                 : 256 Kbps
Channel(s)                               : 2 channels
Sampling rate                            : 48.0 KHz
Compression mode                         : Lossy
Delay relative to video                  : -456ms
Stream size                              : 228 MiB (2%)

Menu
ID                                       : 770 (0x302)
Menu ID                                  : 1197 (0x4AD)
Duration                                 : 2h 4mn
List                                     : 258 (0x102) (AVC) / 514 (0x202) (MPEG Audio)
Maximum bit rate                         : 11948400

评分

参与人数 1部落号角 +5 哇币 +500 收起 理由
刀郎客 + 5 + 500 哇哈有你更精彩

查看全部评分

有必要说明一下,标题里的BD是百度的简写,不是蓝光

0

主题

184

帖子

275

积分

Lv.10

Rank: 10Rank: 10

积分
275
哇币
2077
部落号角
0
发表于 2016-8-8 11:35 | 显示全部楼层
感谢楼主                                              .
社区质量人人有责,请勿灌水和重复回帖,否则将会受到处罚。
回复 支持 反对

使用道具 举报

0

主题

38

帖子

41

积分

Lv.2

Rank: 2Rank: 2

积分
41
哇币
100
部落号角
0
发表于 2016-8-20 21:51 | 显示全部楼层
啊啊啊啊啊啊啊啊啊啊啊啊啊啊啊啊啊啊啊啊啊啊啊啊啊啊啊啊啊啊啊啊啊啊啊啊啊啊啊啊啊啊啊啊啊啊啊啊啊啊啊啊啊啊啊啊啊啊
社区质量人人有责,请勿灌水和重复回帖,否则将会受到处罚。
回复 支持 反对

使用道具 举报

2

主题

53

帖子

73

积分

Lv.3

Rank: 3Rank: 3Rank: 3

积分
73
哇币
472
部落号角
0
发表于 2017-2-13 18:25 | 显示全部楼层
我们里约的第一站,我们打的也很好,郎导说的好,我们不能在同一个地方跌倒两次。最后我们赢了荷兰,夺得冠军。
社区质量人人有责,请勿灌水和重复回帖,否则将会受到处罚。
回复 支持 反对

使用道具 举报

0

主题

75

帖子

103

积分

Lv.4

Rank: 4Rank: 4Rank: 4Rank: 4

积分
103
哇币
450
部落号角
0
发表于 2016-8-7 01:49 | 显示全部楼层
感谢楼主111111111111
社区质量人人有责,请勿灌水和重复回帖,否则将会受到处罚。
回复 支持 反对

使用道具 举报

0

主题

44

帖子

50

积分

Lv.2

Rank: 2Rank: 2

积分
50
哇币
48
部落号角
0
发表于 2016-8-7 01:49 | 显示全部楼层
虽然输了不要紧第一场 比赛而已~
社区质量人人有责,请勿灌水和重复回帖,否则将会受到处罚。
回复 支持 反对

使用道具 举报

0

主题

181

帖子

210

积分

Lv.8

Rank: 8Rank: 8Rank: 8Rank: 8

积分
210
哇币
23
部落号角
0
发表于 2016-8-7 01:52 | 显示全部楼层
输了不要紧.后面加油
社区质量人人有责,请勿灌水和重复回帖,否则将会受到处罚。
回复 支持 反对

使用道具 举报

1

主题

436

帖子

908

积分

Lv.19

Rank: 19Rank: 19Rank: 19Rank: 19Rank: 19Rank: 19Rank: 19

积分
908
哇币
2393
部落号角
0
发表于 2016-8-7 01:52 | 显示全部楼层
速度真快,谢谢楼主。
社区质量人人有责,请勿灌水和重复回帖,否则将会受到处罚。
回复 支持 反对

使用道具 举报

0

主题

2588

帖子

2747

积分

Lv.33

Rank: 33Rank: 33Rank: 33Rank: 33Rank: 33

积分
2747
哇币
2680
部落号角
0
QQ
发表于 2016-8-7 01:52 | 显示全部楼层
感谢楼主感谢楼主
社区质量人人有责,请勿灌水和重复回帖,否则将会受到处罚。
回复 支持 反对

使用道具 举报

0

主题

27

帖子

29

积分

Lv.1

Rank: 1

积分
29
哇币
55
部落号角
0
发表于 2016-8-7 01:58 | 显示全部楼层
谢谢楼主,速度真快。
社区质量人人有责,请勿灌水和重复回帖,否则将会受到处罚。
回复 支持 反对

使用道具 举报

0

主题

34

帖子

41

积分

Lv.2

Rank: 2Rank: 2

积分
41
哇币
69
部落号角
0
发表于 2016-8-7 02:05 | 显示全部楼层
rrrrrrrrrrrrrrrrrrrrrrrrrrrrrrrrrrrrrrrrrr
社区质量人人有责,请勿灌水和重复回帖,否则将会受到处罚。
回复 支持 反对

使用道具 举报

1

主题

349

帖子

459

积分

Lv.13

Rank: 13Rank: 13Rank: 13Rank: 13Rank: 13

积分
459
哇币
1310
部落号角
0
发表于 2016-8-7 02:07 | 显示全部楼层
在吃饭吃出色的好资源
社区质量人人有责,请勿灌水和重复回帖,否则将会受到处罚。
回复 支持 反对

使用道具 举报

0

主题

305

帖子

390

积分

Lv.1

Rank: 1

积分
390
哇币
884
部落号角
0
发表于 2016-8-7 02:15 | 显示全部楼层
感謝樓主的分享
社区质量人人有责,请勿灌水和重复回帖,否则将会受到处罚。
回复 支持 反对

使用道具 举报

*滑动验证:
您需要登录后才可以回帖 登录 | 注册

本版积分规则

×本站发帖友情提示
1、注册用户在本社区发表、转载的任何作品仅代表其个人观点,不代表本社区认同其观点。
2、如果存在违反国家相关法律、法规、条例的行为,我们有权在不经作者准许的情况下删除其在本论坛所发表的文章。
3、所有网友不要盗用有明确版权要求的作品,转贴请注明来源,否则文责自负。
4、本社区保护注册用户个人资料,但是在自身原因导致个人资料泄露、丢失、被盗或篡改,本论坛概不负责,也不承担相应法律责任。

Archiver|手机版|小黑屋|广告合作|哇哈体育 ( 沪ICP备11040679号 

GMT+8, 2017-11-23 23:05

Powered by Discuz! X3.3

© 2001-2017 Comsenz Inc.

快速回复 返回顶部 返回列表